Andy Hafell Passive Affiliate (2019)

Andy Hafell – Passive Affiliate (2019)
WEBRip | English | MP4 + Project Files | 1280 x 720 | AVC ~1536 Kbps | 29.970 fps
AAC | 129 Kbps | 44.1 KHz | 2 channels | ~10 hours | 7.04 GB
Genre: eLearning Video / Business, Sales, Marketing
"How To Start A Wildly Profitable Passive Income Business From Scratch… Using My Simple Step-By-Step Formula – Even My Mom Could Do This! From the desk of: Andy Hafell Location: Chiang Mai, Thailand Date: 10 October, 2019

What You’re Going To Get

6 Week Passive Affiliate Masterclass ($2,997 VALUE)
​BONUS #1 – Copy & Paste scripts & Templates ($1,997 VALUE)
​BONUS #2 – Passive Affiliate Startup Pack ($1,497 VALUE)
BONUS #3 – Complete Youtube Channel Design ($1,197 VALUE)
BONUS #4 – First 1000 Sub Shortcut ($1,297 VALUE)
​BONUS #5 – 30 Day Success Checklist ($1,597 VALUE)
BONUS #6 – Copy & Paste Hiring scripts ($1,997 VALUE)
BONUS #7 – Passive Affiliate Tribe – Mastermind (PRICELESS)

General
Complete name : W3.3.1 PP Slides.mp4
Format : MPEG-4
Format profile : Base Media
Codec ID : isom (isom/iso2/avc1/mp41)
File size : 277 MiB
Duration : 23 min 57 s
Overall bit rate mode : Variable
Overall bit rate : 1 619 kb/s
Season : 0

AppleStoreCatalogID : 0
Xtra : WM/Director

Video
ID : 1
Format : AVC
Format/Info : Advanced Video Codec
Format profile : [email protected]
Format settings : CABAC / 4 Ref Frames
Format settings, CABAC : Yes
Format settings, RefFrames : 4 frames
Codec ID : avc1
Codec ID/Info : Advanced Video Coding
Duration : 23 min 57 s
Bit rate : 1 536 kb/s
Width : 1 280 pixels
Height : 720 pixels
Display aspect ratio : 16:9
Frame rate mode : Constant
Frame rate : 30.000 FPS
Color space : YUV
Chroma subsampling : 4:2:0
Bit depth : 8 bits
Scan type : Progressive
Bits/(Pixel*Frame) : 0.056
Stream size : 254 MiB (92%)
Writing library : x264 core 148
Encoding settings : cabac=1 / ref=3 / deblock=1:0:0 / analyse=0x3:0x113 / me=hex / subme=7 / psy=1 / psy_rd=1.00:0.00 / mixed_ref=1 / me_range=16 / chroma_me=1 / trellis=1 / 8x8dct=1 / cqm=0 / deadzone=21,11 / fast_pskip=1 / chroma_qp_offset=-2 / threads=22 / lookahead_threads=3 / sliced_threads=0 / nr=0 / decimate=1 / interlaced=0 / bluray_compat=0 / constrained_intra=0 / bframes=3 / b_pyramid=2 / b_adapt=1 / b_bias=0 / direct=1 / weightb=1 / open_gop=0 / weightp=2 / keyint=250 / keyint_min=25 / scenecut=40 / intra_refresh=0 / rc_lookahead=40 / rc=abr / mbtree=1 / bitrate=1536 / ratetol=1.0 / qcomp=0.60 / qpmin=0 / qpmax=69 / qpstep=4 / ip_ratio=1.40 / aq=1:1.00
Menus : 4

Audio
ID : 2
Format : AAC
Format/Info : Advanced Audio Codec
Format profile : LC
Codec ID : mp4a-40-2
Duration : 23 min 57 s
Bit rate mode : Variable
Bit rate : 129 kb/s
Maximum bit rate : 149 kb/s
Channel(s) : 2 channels
Channel positions : Front: L R
Sampling rate : 44.1 kHz
Frame rate : 43.066 FPS (1024 SPF)
Compression mode : Lossy
Stream size : 22.0 MiB (8%)
Default : Yes
Alternate group : 1

Menu
ID : 4
Codec ID : text
Duration : 23 min 57 s
Encoded date : UTC 2019-09-19 11:09:32
Tagged date : UTC 2019-09-19 11:09:32
Menu For : 1
00:00:00.000 : Chapter 1

Screenshots

DOWNLOAD
(Buy premium account for maximum speed and resuming ability)

https://rapidgator.net/file/245ff0954ac07f557a08d0cd91926c8e/tpw5o.Andy.Hafell..Passive.Affiliate.2019.part1.rar
https://rapidgator.net/file/b6e2fb04f13cb2ad4b5229eceaacfd89/tpw5o.Andy.Hafell..Passive.Affiliate.2019.part2.rar
https://rapidgator.net/file/4e80cd0a0d2f19d26423b7b760f6ee84/tpw5o.Andy.Hafell..Passive.Affiliate.2019.part3.rar
https://rapidgator.net/file/1abdff3c3927f3e985fc8dd8ddb579f8/tpw5o.Andy.Hafell..Passive.Affiliate.2019.part4.rar
https://rapidgator.net/file/f0d7cefd413c027bc46b4161aaa4ce41/tpw5o.Andy.Hafell..Passive.Affiliate.2019.part5.rar
https://rapidgator.net/file/2be64f52099b177432083eb4b190e4b2/tpw5o.Andy.Hafell..Passive.Affiliate.2019.part6.rar
https://rapidgator.net/file/1c96cc5d16bb05a5f39ef489d9e79bbb/tpw5o.Andy.Hafell..Passive.Affiliate.2019.part7.rar
https://rapidgator.net/file/e223f125182a0a42393a59372da21b78/tpw5o.Andy.Hafell..Passive.Affiliate.2019.part8.rar