Basic Router Jigs with Ron Fox

Basic Router Jigs with Ron Fox
DVDRip | English | AVI | 640 x 360 | DX50 ~1496 kbps | 29.970 fps
MP3 | 128 Kbps | 44.1 KHz | 2 channels | 01:03:00 | 740 MB
Genre: eLearning Video / Woodworking
In this series Ron Fox demonstrates how to make some of his most popular and useful jigs for the router.

General
Complete name : Basic Router Jigs with Ron Fox.avi
Format : AVI
Format/Info : Audio Video Interleave
File size : 740 MiB
Duration : 1h 3mn
Overall bit rate : 1 638 Kbps
Writing application : Lavf52.39.0

Video
ID : 0
Format : MPEG-4 Visual
Format profile : [email protected]
Format settings, BVOP : No
Format settings, QPel : No
Format settings, GMC : No warppoints
Format settings, Matrix : Default (H.263)
Codec ID : DX50
Codec ID/Hint : DivX 5
Duration : 1h 3mn
Bit rate : 1 496 Kbps
Width : 640 pixels
Height : 360 pixels
Display aspect ratio : 16:9
Frame rate : 29.970 fps
Color space : YUV
Chroma subsampling : 4:2:0
Bit depth : 8 bits
Scan type : Progressive
Compression mode : Lossy
Bits/(Pixel*Frame) : 0.217
Stream size : 676 MiB (91%)
Writing library : Lavc52.36.0

Audio
ID : 1
Format : MPEG Audio
Format version : Version 1
Format profile : Layer 3
Mode : Joint stereo
Mode extension : MS Stereo
Codec ID : 55
Codec ID/Hint : MP3
Duration : 1h 3mn
Bit rate mode : Constant
Bit rate : 128 Kbps
Channel(s) : 2 channels
Sampling rate : 44.1 KHz
Compression mode : Lossy
Stream size : 57.8 MiB (8%)
Alignment : Aligned on interleaves
Interleave, duration : 26 ms (0.78 video frame)
Writing library : LAME3.98.2

Screenshots

DOWNLOAD
(Buy premium account for maximum speed and resuming ability)

https://rapidgator.net/file/4d23b13581bdd48c8d43a1c42e78e40d/ztd1i.Basic.Router.Jigs.with.Ron.Fox.part1.rar
https://rapidgator.net/file/9636f0ccef2cff145c0c32976ace4d17/ztd1i.Basic.Router.Jigs.with.Ron.Fox.part2.rar
https://rapidgator.net/file/ce0a5feaa0f6c36501bad3bf4d617d57/ztd1i.Basic.Router.Jigs.with.Ron.Fox.part3.rar
https://rapidgator.net/file/168982c1d54f925961752ad639cbd1af/ztd1i.Basic.Router.Jigs.with.Ron.Fox.part4.rar
https://rapidgator.net/file/9ac2aff466bb463cdfdbd91a8f015c48/ztd1i.Basic.Router.Jigs.with.Ron.Fox.part5.rar
https://rapidgator.net/file/c5514b81204ffe83d53d1424ee3ec461/ztd1i.Basic.Router.Jigs.with.Ron.Fox.part6.rar
https://rapidgator.net/file/575774ce710ad1929704e3143319139a/ztd1i.Basic.Router.Jigs.with.Ron.Fox.part7.rar
https://rapidgator.net/file/006700ee18ac4a00826a51d210d824f9/ztd1i.Basic.Router.Jigs.with.Ron.Fox.part8.rar