Coursera Clinical Problem Solving (University of California San Francisco)

Coursera – Clinical Problem Solving (University of California San Francisco)
WEBRip | English | MP4 + PDF Guides | 960 x 540 | AVC ~213 kbps | 29.970 fps
AAC | 112 Kbps | 44.1 KHz | 2 channels | ~7 hours | 1.12 GB
Genre: eLearning Video / Medicine

Welcome to Clinical Problem Solving, offered by the University of California, San Francisco, on Coursera. This course will examine the ways physicians think about clinical problem solving and will help participants develop competence in the building blocks of clinical problem solving. The professor will use cases to illustrate different reasoning strategies and will discuss how both correct and incorrect diagnoses result from these strategies. Participants will use sample clinical cases to practice what they have learned through the lectures.Although all students are welcome to watch lectures, attempt assignments, and participate in discussions, it is strongly recommended that students have an academic or professional background in medical terminology and physical diagnosis. The weekly assignments will ask students to apply the concepts and principles taught in this course to various diseases, syndromes, and diagnoses; however, detailed information about medical terminology and disease states will not be taught in the course. Please read the "Recommended Readings" section below for information on outside resources that will be useful for completing assignments for all students. All students, regardless of their background, are encouraged to use a medical textbook to help accurately complete course assignments.

Course Objectives

At the conclusion of this course, students will have the ability to:

Understand how doctors and other medical professionals use patient’s complaints to accurately determine diagnoses
Accurately process patient symptoms to prioritize possible diagnoses
Successfully use Illness Scripts as a method for organizing patient symptoms
Recognize patterns and apply these pattern-recognition skills to refine decision making and prioritize among different diagnostic possibilities
Correctly interpret diagnostic tests and use diagnostic tests to refine your prioritized diagnosis
Understand biases and errors that may lead to poor decision making and practice a strategy for uncovering biased decisions

General
Complete name :Clinical Problem Solving 5.1 Part 2 Answering Questions (800).mp4
Format : MPEG-4
Format profile : Base Media
Codec ID : isom
File size : 19.1 MiB
Duration : 8mn 0s
Overall bit rate mode : Variable
Overall bit rate : 333 Kbps
Writing application : Lavf53.29.100

Video
ID : 1
Format : AVC
Format/Info : Advanced Video Codec
Format profile : [email protected]
Format settings, CABAC : Yes
Format settings, ReFrames : 4 frames
Codec ID : avc1
Codec ID/Info : Advanced Video Coding
Duration : 8mn 0s
Bit rate : 213 Kbps
Width : 960 pixels
Height : 540 pixels
Display aspect ratio : 16:9
Frame rate mode : Constant
Frame rate : 29.970 fps
Color space : YUV
Chroma subsampling : 4:2:0
Bit depth : 8 bits
Scan type : Progressive
Bits/(Pixel*Frame) : 0.014
Stream size : 12.2 MiB (64%)
Writing library : x264 core 120 r2120 0c7dab9
Encoding settings : cabac=1 / ref=3 / deblock=1:0:0 / analyse=0x3:0x113 / me=hex / subme=7 / psy=1 / psy_rd=1.00:0.00 / mixed_ref=1 / me_range=16 / chroma_me=1 / trellis=1 / 8x8dct=1 / cqm=0 / deadzone=21,11 / fast_pskip=1 / chroma_qp_offset=-2 / threads=12 / sliced_threads=0 / nr=0 / decimate=1 / interlaced=0 / bluray_compat=0 / constrained_intra=0 / bframes=3 / b_pyramid=2 / b_adapt=1 / b_bias=0 / direct=1 / weightb=1 / open_gop=0 / weightp=2 / keyint=250 / keyint_min=25 / scenecut=40 / intra_refresh=0 / rc_lookahead=40 / rc=crf / mbtree=1 / crf=28.0 / qcomp=0.60 / qpmin=0 / qpmax=69 / qpstep=4 / ip_ratio=1.40 / aq=1:1.00

Audio
ID : 2
Format : AAC
Format/Info : Advanced Audio Codec
Format profile : LC
Codec ID : 40
Duration : 8mn 0s
Bit rate mode : Variable
Bit rate : 112 Kbps
Maximum bit rate : 128 Kbps
Channel(s) : 2 channels
Channel positions : Front: L R
Sampling rate : 44.1 KHz
Compression mode : Lossy
Delay relative to video : -2s 2ms
Stream size : 6.41 MiB (34%)

Screenshots

_net:

_com:

_com:

DOWNLOAD
(Buy premium account for maximum speed and resuming ability)

http://nitroflare.com/view/2AC2F299FE362EF/n0vw3.Coursera..Clinical.Problem.Solving.University.of.California.San.Francisco.part01.rar
http://nitroflare.com/view/92E08226BA9352A/n0vw3.Coursera..Clinical.Problem.Solving.University.of.California.San.Francisco.part02.rar
http://nitroflare.com/view/02302FDC145AE03/n0vw3.Coursera..Clinical.Problem.Solving.University.of.California.San.Francisco.part03.rar
http://nitroflare.com/view/DBDD854358DBF04/n0vw3.Coursera..Clinical.Problem.Solving.University.of.California.San.Francisco.part04.rar
http://nitroflare.com/view/F8C6804707D2C38/n0vw3.Coursera..Clinical.Problem.Solving.University.of.California.San.Francisco.part05.rar
http://nitroflare.com/view/A5DAE975013AA26/n0vw3.Coursera..Clinical.Problem.Solving.University.of.California.San.Francisco.part06.rar
http://nitroflare.com/view/2AC08FE4D0C5EB6/n0vw3.Coursera..Clinical.Problem.Solving.University.of.California.San.Francisco.part07.rar
http://nitroflare.com/view/0B2915F1377B82B/n0vw3.Coursera..Clinical.Problem.Solving.University.of.California.San.Francisco.part08.rar
http://nitroflare.com/view/BCC5A1E6496CE26/n0vw3.Coursera..Clinical.Problem.Solving.University.of.California.San.Francisco.part09.rar
https://rapidgator.net/file/cbd655c174f754e4c92d6c76f2e4b502/n0vw3.Coursera..Clinical.Problem.Solving.University.of.California.San.Francisco.part01.rar
https://rapidgator.net/file/46b12f946b125b728e91402223463112/n0vw3.Coursera..Clinical.Problem.Solving.University.of.California.San.Francisco.part02.rar
https://rapidgator.net/file/1856070e3169832bf0367123772b3fae/n0vw3.Coursera..Clinical.Problem.Solving.University.of.California.San.Francisco.part03.rar
https://rapidgator.net/file/7733df395e887d4c5ecdaa640e03ae44/n0vw3.Coursera..Clinical.Problem.Solving.University.of.California.San.Francisco.part04.rar
https://rapidgator.net/file/f631633b2188ba82abece0c4ae7d38ef/n0vw3.Coursera..Clinical.Problem.Solving.University.of.California.San.Francisco.part05.rar
https://rapidgator.net/file/53d10bf7ac428f69fe3cfa64b8900bf2/n0vw3.Coursera..Clinical.Problem.Solving.University.of.California.San.Francisco.part06.rar
https://rapidgator.net/file/fdd6dbef76990c27f0c5089193515a6d/n0vw3.Coursera..Clinical.Problem.Solving.University.of.California.San.Francisco.part07.rar
https://rapidgator.net/file/b124aa82645df7507b0ef9201cd4d37d/n0vw3.Coursera..Clinical.Problem.Solving.University.of.California.San.Francisco.part08.rar
https://rapidgator.net/file/db8efff4e9dabb14c0b36a3cbdbdfd84/n0vw3.Coursera..Clinical.Problem.Solving.University.of.California.San.Francisco.part09.rar