Coursera How to Succeed in College (University of Kentucky)

Coursera – How to Succeed in College (University of Kentucky)
WEBRip | English | MP4 | 960 x 540 | AVC ~358 kbps | 30 fps
VORBIS | 128 Kbps | 48.0 KHz | 2 channels | ~3 hours | 719 MB
Genre: eLearning Video / Higher Education
In How to Succeed in College, students interact and plan their transition to higher education and beyond. This multimedia course incorporates presentations, videos, and social media while focusing on strategies for student success. Various perspectives are introduced through interviews with faculty, staff, administrators, alumni, and current students to provide a holistic view of the college experience. Students in the course interact with each other via discussion forums, social media, and peer-review assignments. Topics include instructor expectations, social interaction, acclimating to new environments, strategies for studying, student resources, and basic issues in psychology. The course is designed for incoming college students of all backgrounds and interests. Join Dr. Jonathan Golding and Dr. Phil Kraemer in exploring the challenges and opportunities of the college experience.

Week 1: Prepare for the college student experience
Week 2: Learn about various types of college courses
Week 3: Develop strategies for active listening, note taking, and exam taking
Week 4: Learn about memory recall and best practices for studying
Week 5: Explore student resources that can help you succeed

General
Unique ID : 175635672171697891878623520150872760224 (0x842233356A5BD19597DA4C6C4FE99FA0)
Complete name : How to Succeed in College 4.1 Academic Possibilities I 1338.mp4
Format : WebM
Format version : Version 2
File size : 50.3 MiB
Duration : 13mn 38s
Overall bit rate mode : Variable
Overall bit rate : 515 Kbps
Writing application : Lavf55.10.100
Writing library : Lavf55.10.100

Video
ID : 1
Format : VP8
Codec ID : V_VP8
Duration : 13mn 38s
Bit rate : 358 Kbps
Width : 960 pixels
Height : 540 pixels
Display aspect ratio : 16:9
Frame rate mode : Constant
Frame rate : 30.000 fps
Compression mode : Lossy
Bits/(Pixel*Frame) : 0.023
Stream size : 34.9 MiB (69%)
Language : English
Default : Yes
Forced : No

Audio
ID : 2
Format : Vorbis
Format settings, Floor : 1
Codec ID : A_VORBIS
Duration : 13mn 38s
Bit rate mode : Variable
Bit rate : 128 Kbps
Maximum bit rate : 700 Kbps
Channel(s) : 2 channels
Sampling rate : 48.0 KHz
Compression mode : Lossy
Delay relative to video : -36ms
Stream size : 12.5 MiB (25%)
Writing application : Lavc55.17.100
Writing library : libVorbis (Schaufenugget) (20101101 (Schaufenugget))
Language : English
Default : Yes
Forced : No

Screenshots

DOWNLOAD
(Buy premium account for maximum speed and resuming ability)

http://nitroflare.com/view/DA492439EF8DDF8/a6ykx.Coursera..How.to.Succeed.in.College.University.of.Kentucky.part1.rar
http://nitroflare.com/view/D2465E48D8AAB81/a6ykx.Coursera..How.to.Succeed.in.College.University.of.Kentucky.part2.rar
http://nitroflare.com/view/3C171425B2E26BD/a6ykx.Coursera..How.to.Succeed.in.College.University.of.Kentucky.part3.rar
http://nitroflare.com/view/A19A39285CAE18A/a6ykx.Coursera..How.to.Succeed.in.College.University.of.Kentucky.part4.rar
http://nitroflare.com/view/29D9FA622A6FDCC/a6ykx.Coursera..How.to.Succeed.in.College.University.of.Kentucky.part5.rar
http://nitroflare.com/view/4663192E1A76D41/a6ykx.Coursera..How.to.Succeed.in.College.University.of.Kentucky.part6.rar
http://nitroflare.com/view/AC0527546DCBD0B/a6ykx.Coursera..How.to.Succeed.in.College.University.of.Kentucky.part7.rar
http://nitroflare.com/view/6CE8B93E8D2F3C5/a6ykx.Coursera..How.to.Succeed.in.College.University.of.Kentucky.part8.rar
https://rapidgator.net/file/b34e76a75cbbcb0b366e84589289a2b4/a6ykx.Coursera..How.to.Succeed.in.College.University.of.Kentucky.part1.rar
https://rapidgator.net/file/27c8bf3444fb11933623f7a8b28de719/a6ykx.Coursera..How.to.Succeed.in.College.University.of.Kentucky.part2.rar
https://rapidgator.net/file/4dc81c6158e93de3da248ed927b96dfe/a6ykx.Coursera..How.to.Succeed.in.College.University.of.Kentucky.part3.rar
https://rapidgator.net/file/4ec3da687ba95a2c06c37baea8850285/a6ykx.Coursera..How.to.Succeed.in.College.University.of.Kentucky.part4.rar
https://rapidgator.net/file/d4e213409e61d3ba6213dd6dbe6716c5/a6ykx.Coursera..How.to.Succeed.in.College.University.of.Kentucky.part5.rar
https://rapidgator.net/file/fa5ba4dad9cac3635106ae7956f54534/a6ykx.Coursera..How.to.Succeed.in.College.University.of.Kentucky.part6.rar
https://rapidgator.net/file/f93dbd33c762fc591b2cb9bf7d47352c/a6ykx.Coursera..How.to.Succeed.in.College.University.of.Kentucky.part7.rar
https://rapidgator.net/file/16d055a067583cb4a86193f8500549b3/a6ykx.Coursera..How.to.Succeed.in.College.University.of.Kentucky.part8.rar