Coursera Introduction to Psychology as a Science (Georgia Institute of Technology)

Coursera – Introduction to Psychology as a Science (Georgia Institute of Technology)
WEBRip | English | MP4 | 960 x 540 | AVC ~231 kbps | 29.970 fps
AAC | 128 Kbps | 44.1 KHz | 2 channels | Subs: English | ~9 hours | 1.25 GB
Genre: eLearning Video / Psychology
Since we were young children, we have tried to understand, to predict, and to control behavior. We first dealt with our parents and teachers, and later our friends and companions. This course shows, however, how the understanding, prediction, and control of behavior require scientific validation.

By using tools that are systematic and objective, psychology has learned how people behave and think. Psychology is a very broad field of study and the course will include discussions of the brain and nervous system, sensation and perception, learning, memory, intelligence and thinking, lifespan development, emotion and motivation, personality, social behavior, behavioral disorders, and psychological treatment of disorders. The course will include short lecture modules, demonstrations and experiments, and writing assignments.

Syllabus

This is a twelve-week Introductory Psychology course that is usually taught in the first year of college. There is a Spring Break during the week of March 17-21, 2014. Psychology is a broad discipline as you can see in the outline, and the course will survey the many areas studied by psychologists. Psychologists study the mind and behavior.

This course was funded by a generous grant from the Bill & Melinda Gates Foundation. The QM certification mark recognizes that this course met Quality Matters review standards.

General
Complete name : 7 – 3 – Lecture Video 5.3 Episodic Memory.mp4
Format : MPEG-4
Format profile : Base Media
Codec ID : isom (isom/iso2/avc1/mp41)
File size : 35.6 MiB
Duration : 13 min 31 s
Overall bit rate : 367 kb/s
Encoded date : UTC 1970-01-01 00:00:00
Tagged date : UTC 1970-01-01 00:00:00
Writing application : Lavf53.29.100

Video
ID : 1
Format : AVC
Format/Info : Advanced Video Codec
Format profile :
Format settings : CABAC / 4 Ref Frames
Format settings, CABAC : Yes
Format settings, RefFrames : 4 frames
Codec ID : avc1
Codec ID/Info : Advanced Video Coding
Duration : 13 min 31 s
Bit rate : 231 kb/s
Width : 960 pixels
Height : 540 pixels
Display aspect ratio : 16:9
Frame rate mode : Constant
Frame rate : 29.970 (30000/1001) FPS
Color space : YUV
Chroma subsampling : 4:2:0
Bit depth : 8 bits
Scan type : Progressive
Bits/(Pixel*Frame) : 0.015
Stream size : 22.4 MiB (63%)
Writing library : x264 core 120 r2120 0c7dab9
Encoding settings : cabac=1 / ref=3 / deblock=1:0:0 / analyse=0x3:0x113 / me=hex / subme=7 / psy=1 / psy_rd=1.00:0.00 / mixed_ref=1 / me_range=16 / chroma_me=1 / trellis=1 / 8x8dct=1 / cqm=0 / deadzone=21,11 / fast_pskip=1 / chroma_qp_offset=-2 / threads=12 / sliced_threads=0 / nr=0 / decimate=1 / interlaced=0 / bluray_compat=0 / constrained_intra=0 / bframes=3 / b_pyramid=2 / b_adapt=1 / b_bias=0 / direct=1 / weightb=1 / open_gop=0 / weightp=2 / keyint=250 / keyint_min=25 / scenecut=40 / intra_refresh=0 / rc_lookahead=40 / rc=crf / mbtree=1 / crf=28.0 / qcomp=0.60 / qpmin=0 / qpmax=69 / qpstep=4 / ip_ratio=1.40 / aq=1:1.00
Encoded date : UTC 1970-01-01 00:00:00
Tagged date : UTC 1970-01-01 00:00:00

Audio
ID : 2
Format : AAC
Format/Info : Advanced Audio Codec
Format profile : LC
Codec ID : mp4a-40-2
Duration : 13 min 31 s
Bit rate mode : Constant
Bit rate : 128 kb/s
Channel(s) : 2 channels
Channel positions : Front: L R
Sampling rate : 44.1 kHz
Frame rate : 43.066 FPS (1024 SPF)
Compression mode : Lossy
Stream size : 12.4 MiB (35%)
Default : Yes
Alternate group : 1
Encoded date : UTC 1970-01-01 00:00:00
Tagged date : UTC 1970-01-01 00:00:00

Screenshots

DOWNLOAD
(Buy premium account for maximum speed and resuming ability)

http://nitroflare.com/view/4BAAAAD921B6C7C/da2z0.Coursera..Introduction.to.Psychology.as.a.Science.Georgia.Institute.of.Technology.part01.rar
http://nitroflare.com/view/E028E8D05748C89/da2z0.Coursera..Introduction.to.Psychology.as.a.Science.Georgia.Institute.of.Technology.part02.rar
http://nitroflare.com/view/1E7868F382CA770/da2z0.Coursera..Introduction.to.Psychology.as.a.Science.Georgia.Institute.of.Technology.part03.rar
http://nitroflare.com/view/D7F011EFFC86C18/da2z0.Coursera..Introduction.to.Psychology.as.a.Science.Georgia.Institute.of.Technology.part04.rar
http://nitroflare.com/view/EAEBDBFBDC119DB/da2z0.Coursera..Introduction.to.Psychology.as.a.Science.Georgia.Institute.of.Technology.part05.rar
http://nitroflare.com/view/492FE89175AC760/da2z0.Coursera..Introduction.to.Psychology.as.a.Science.Georgia.Institute.of.Technology.part06.rar
http://nitroflare.com/view/A8EB1F5EF9C7AFE/da2z0.Coursera..Introduction.to.Psychology.as.a.Science.Georgia.Institute.of.Technology.part07.rar
http://nitroflare.com/view/05D4D379F3D93DB/da2z0.Coursera..Introduction.to.Psychology.as.a.Science.Georgia.Institute.of.Technology.part08.rar
http://nitroflare.com/view/0FCD3CD369F1822/da2z0.Coursera..Introduction.to.Psychology.as.a.Science.Georgia.Institute.of.Technology.part09.rar
https://rapidgator.net/file/17ad80d40475d41432275263c07d908f/da2z0.Coursera..Introduction.to.Psychology.as.a.Science.Georgia.Institute.of.Technology.part01.rar
https://rapidgator.net/file/ea76739941987c3e92963445b929ce8d/da2z0.Coursera..Introduction.to.Psychology.as.a.Science.Georgia.Institute.of.Technology.part02.rar
https://rapidgator.net/file/fd67477c7397765be7a097a554f0a3fd/da2z0.Coursera..Introduction.to.Psychology.as.a.Science.Georgia.Institute.of.Technology.part03.rar
https://rapidgator.net/file/6e0cdcae98dc863973d6071b9a6d2ca4/da2z0.Coursera..Introduction.to.Psychology.as.a.Science.Georgia.Institute.of.Technology.part04.rar
https://rapidgator.net/file/0843df86532d26814ec922526ea01920/da2z0.Coursera..Introduction.to.Psychology.as.a.Science.Georgia.Institute.of.Technology.part05.rar
https://rapidgator.net/file/4e023cfb562b9f9a6f9dbda85740e16e/da2z0.Coursera..Introduction.to.Psychology.as.a.Science.Georgia.Institute.of.Technology.part06.rar
https://rapidgator.net/file/dfca9aaaea61892833b4f8cdf1ac16b7/da2z0.Coursera..Introduction.to.Psychology.as.a.Science.Georgia.Institute.of.Technology.part07.rar
https://rapidgator.net/file/a1be3e3de46758e90108479b1aea45ab/da2z0.Coursera..Introduction.to.Psychology.as.a.Science.Georgia.Institute.of.Technology.part08.rar
https://rapidgator.net/file/932db45c193b59ed0ec76d62b41bded4/da2z0.Coursera..Introduction.to.Psychology.as.a.Science.Georgia.Institute.of.Technology.part09.rar