Coursera Learn to Program Crafting Quality Code (University of Toronto)

Coursera – Learn to Program: Crafting Quality Code (University of Toronto)
WEBRip | English | MP4 | 960 x 540 | VP8 ~94.5 kbps | 15 fps
VORBIS | 128 Kbps | 44.1 KHz | 2 channels | ~10 hours | 344 MB
Genre: eLearning Video / Computer Science, Software Testing, Unit Testing
Not all programs are created equal. In this course, we’ll focus on writing quality code that runs correctly and efficiently. We’ll design, code and validate our programs and learn how to compare programs that are addressing the same task.

Established in 1827, the University of Toronto is one of the world’s leading universities,
renowned for its excellence in teaching, research, innovation and entrepreneurship, as well as
its impact on economic prosperity and social well-being around the globe.

General
Unique ID : 67308376437278589664710368654091831849 (0x32A31F2C3E89E0DA7C617A0D36374A29)
Complete name : Learn to Program Crafting Quality Code 2.1 Linear Search (641).mp4
Format : WebM
Format version : Version 2
File size : 11.5 MiB
Duration : 6 min 40 s
Overall bit rate mode : Variable
Overall bit rate : 241 kb/s
Writing application : Lavf55.10.100
Writing library : Lavf55.10.100
FileExtension_Invalid : webm

Video
ID : 1
Format : VP8
Codec ID : V_VP8
Duration : 6 min 41 s
Bit rate : 94.5 kb/s
Width : 960 pixels
Height : 540 pixels
Display aspect ratio : 16:9
Frame rate mode : Constant
Frame rate : 15.000 FPS
Compression mode : Lossy
Bits/(Pixel*Frame) : 0.012
Stream size : 4.52 MiB (39%)
Default : Yes
Forced : No

Audio
ID : 2
Format : Vorbis
Format settings, Floor : 1
Codec ID : A_VORBIS
Duration : 6 min 40 s
Bit rate mode : Variable
Bit rate : 128 kb/s
Maximum bit rate : 700 kb/s
Channel(s) : 2 channels
Sampling rate : 44.1 kHz
Compression mode : Lossy
Delay relative to video : -3 ms
Stream size : 6.12 MiB (53%)
Writing application : Lavc55.17.100
Writing library : libVorbis (Schaufenugget) (20101101 (Schaufenugget))
Default : Yes
Forced : No

Screenshots

DOWNLOAD
(Buy premium account for maximum speed and resuming ability)