Fine Woodworking 2008 Annual Collection

Fine Woodworking – 2008 Annual Collection
DVDRip | English | MKV | 640 x 480 | VP6 ~516 kbps | 30 fps
MP3 | 128 kbps | 48.0 KHz | 1 channel | 02:21:24 | 593 MB
Genre: eLearning / Woodworking
Fine Woodworking was launched in 1975 in response to the lack of quality information on the craft. With a circulation of 287,000, it is now the premiere source of how-to information for woodworkers of all skill levels that are seriously interested in woodworking techniques, tools, projects, finishing and design inspiration. Video from DVD, collection of the best articles in the magazine Fine Woodworking in 2008. Includes short videos on various topics of woodworking.

General
Unique ID : 180579441206752076288274524217530781424 (0x87DA55D7464CA126AFA8319E8C2A0EF0)
Complete name : FWW_2008_0197_08_VIDEO.mkv
Format : Matroska
Format version : Version 2
File size : 38.8 MiB
Duration : 9 min 25 s
Overall bit rate : 575 kb/s
Encoded date : UTC 2012-11-12 18:47:35
Writing application : mkvmerge v3.3.0 (‘Language’) built on Mar 24 2010 14:59:24
Writing library : libebml v0.8.0 + libmatroska v0.9.0

Video
ID : 1
Format : VP6
Format profile : Heightened Sharpness
Codec ID : V_MS/VFW/FOURCC / VP6F
Codec ID/Hint : On2
Duration : 9 min 25 s
Bit rate : 516 kb/s
Width : 640 pixels
Height : 480 pixels
Display aspect ratio : 4:3
Frame rate mode : Constant
Frame rate : 30.000 FPS
Bits/(Pixel*Frame) : 0.056
Stream size : 34.8 MiB (90%)
Default : Yes
Forced : No

Audio
ID : 2
Format : MPEG Audio
Format version : Version 2
Format profile : Layer 3
Codec ID : A_MPEG/L3
Codec ID/Hint : MP3
Duration : 9 min 25 s
Bit rate mode : Constant
Bit rate : 48.0 kb/s
Channel(s) : 1 channel
Sampling rate : 22.05 kHz
Compression mode : Lossy
Stream size : 3.24 MiB (8%)
Default : Yes
Forced : No

Screenshots

DOWNLOAD
(Buy premium account for maximum speed and resuming ability)