Frame and Panel Construction

Frame and Panel Construction
DVDRip | English | AVI | 512 x 384 | XviD ~1511 Kbps | 29.970 fps
MP3 | 128 Kbps | 48.0 KHz | 2 channels | 00:39:32 | 467 MB
Genre: eLearning Video / Woodworking
Design and frame and panel, cut the mortises and tenons, fasten the joint with draw boring, groove the frame for the panel, choose a panel style, raise a panel, trim the frame to size.

General
Complete name : Frame and Panel.avi
Format : AVI
Format/Info : Audio Video Interleave
File size : 467 MiB
Duration : 39 min 32 s
Overall bit rate : 1 650 kb/s
Writing application : VirtualDubMod 1.5.4.1 (build 2178/release)
Writing library : VirtualDubMod build 2178/release

Video
ID : 0
Format : MPEG-4 Visual
Format profile : Advanced
Format settings : BVOP1 / Custom Matrix
Format settings, BVOP : 1
Format settings, QPel : No
Format settings, GMC : No warppoints
Format settings, Matrix : Custom
Codec ID : XVID
Codec ID/Hint : XviD
Duration : 39 min 32 s
Bit rate : 1 511 kb/s
Width : 512 pixels
Height : 384 pixels
Display aspect ratio : 4:3
Frame rate : 29.970 (30000/1001) FPS
Color space : YUV
Chroma subsampling : 4:2:0
Bit depth : 8 bits
Scan type : Progressive
Compression mode : Lossy
Bits/(Pixel*Frame) : 0.256
Stream size : 427 MiB (92%)
Writing library : XviD 1.2.0.dev47 (UTC 2006-11-01)

Audio
ID : 1
Format : MPEG Audio
Format version : Version 1
Format profile : Layer 3
Format settings : Joint stereo / MS Stereo
Codec ID : 55
Codec ID/Hint : MP3
Duration : 39 min 32 s
Bit rate mode : Constant
Bit rate : 128 kb/s
Channel(s) : 2 channels
Sampling rate : 48.0 kHz
Frame rate : 41.667 FPS (1152 SPF)
Compression mode : Lossy
Stream size : 36.2 MiB (8%)
Alignment : Aligned on interleaves
Interleave, duration : 33 ms (1.00 video frame)
Interleave, preload duration : 504 ms
Writing library : LAME3.97
Encoding settings : -m j -V 4 -q 2 -lowpass 17 -b 128

Screenshots

DOWNLOAD
(Buy premium account for maximum speed and resuming ability)