Istack Training Facebook & Ecom Mastery event Las Vegas Replay 2019

Istack Training – Facebook & Ecom Mastery event Las Vegas Replay 2019
WEBRip | English | MP4 | 640 x 360 | AVC ~790 Kbps | 30 fps
AAC | 121 Kbps | 44.1 KHz | 2 channels | ~7 hours | 3.84 GB
Genre: eLearning Video / Business, Sales, Marketing
Two Days + Twelve Experts = MASSIVE Growth for Your Facebook Ads and Ecommerce Business Get the Replay Now and Save Over $500!

DAY 1 * JAN 9, 2019
This one-day intensive training session will teach you the most current and effective tactics for profitably scaling Facebook Ads.

DAY 2 * JAN 10, 2019
This one-day training session will teach you the game-changing ecommerce strategies that entrepreneurs are using to start and scale profitable stores and brands.

General
Complete name : Nate Lind + Q&A.mp4
Format : MPEG-4
Format profile : Base Media
Codec ID : isom (isom/iso2/avc1/mp41)
File size : 493 MiB
Duration : 1 h 15 min
Overall bit rate mode : Variable
Overall bit rate : 916 kb/s
Season : 0

Xtra : WM/Category

Video
ID : 1
Format : AVC
Format/Info : Advanced Video Codec
Format profile : [email protected]
Format settings : 1 Ref Frames
Format settings, CABAC : No
Format settings, RefFrames : 1 frame
Format settings, GOP : M=1, N=12
Codec ID : avc1
Codec ID/Info : Advanced Video Coding
Duration : 1 h 15 min
Bit rate : 790 kb/s
Width : 640 pixels
Height : 360 pixels
Display aspect ratio : 16:9
Frame rate mode : Constant
Frame rate : 30.000 FPS
Color space : YUV
Chroma subsampling : 4:2:0
Bit depth : 8 bits
Scan type : Progressive
Bits/(Pixel*Frame) : 0.114
Stream size : 425 MiB (86%)
Language : English
Encoded date : UTC 2019-02-05 10:46:16
Tagged date : UTC 2019-02-05 10:46:16
Menus : 3

Audio
ID : 2
Format : AAC
Format/Info : Advanced Audio Codec
Format profile : LC
Codec ID : mp4a-40-2
Duration : 1 h 15 min
Bit rate mode : Variable
Bit rate : 121 kb/s
Channel(s) : 2 channels
Channel positions : Front: L R
Sampling rate : 44.1 kHz
Frame rate : 43.066 FPS (1024 SPF)
Compression mode : Lossy
Stream size : 65.3 MiB (13%)
Language : English
Encoded date : UTC 2019-02-05 10:46:16
Tagged date : UTC 2019-02-05 10:46:16

Menu
ID : 3
Codec ID : text
Duration : 1 h 15 min
Encoded date : UTC 2019-02-18 18:46:37
Tagged date : UTC 2019-02-18 18:46:37
Menu For : 1
00:00:00.000 : Chapter 1

Screenshots

DOWNLOAD
(Buy premium account for maximum speed and resuming ability)

http://nitroflare.com/view/5017C37269766EE/k4sxz.Istack.Training..Facebook..Ecom.Mastery.event.Las.Vegas.Replay.2019.part01.rar
http://nitroflare.com/view/8727E90D496EBB2/k4sxz.Istack.Training..Facebook..Ecom.Mastery.event.Las.Vegas.Replay.2019.part02.rar
http://nitroflare.com/view/9066C6C102265E5/k4sxz.Istack.Training..Facebook..Ecom.Mastery.event.Las.Vegas.Replay.2019.part03.rar
http://nitroflare.com/view/2CD13D0EB935AC0/k4sxz.Istack.Training..Facebook..Ecom.Mastery.event.Las.Vegas.Replay.2019.part04.rar
http://nitroflare.com/view/6467FE4B075E567/k4sxz.Istack.Training..Facebook..Ecom.Mastery.event.Las.Vegas.Replay.2019.part05.rar
http://nitroflare.com/view/33799FC24C30177/k4sxz.Istack.Training..Facebook..Ecom.Mastery.event.Las.Vegas.Replay.2019.part06.rar
http://nitroflare.com/view/722EC5D1D45FE36/k4sxz.Istack.Training..Facebook..Ecom.Mastery.event.Las.Vegas.Replay.2019.part07.rar
http://nitroflare.com/view/3899D2B56823873/k4sxz.Istack.Training..Facebook..Ecom.Mastery.event.Las.Vegas.Replay.2019.part08.rar
http://nitroflare.com/view/5A0D84EE7E6CFE2/k4sxz.Istack.Training..Facebook..Ecom.Mastery.event.Las.Vegas.Replay.2019.part09.rar
http://nitroflare.com/view/904A5E6DE202469/k4sxz.Istack.Training..Facebook..Ecom.Mastery.event.Las.Vegas.Replay.2019.part10.rar
https://rapidgator.net/file/6c62f3204d84ca290ce69ab497c4eb4c/k4sxz.Istack.Training..Facebook..Ecom.Mastery.event.Las.Vegas.Replay.2019.part01.rar
https://rapidgator.net/file/0e12ee7c142e7bfa402455c16ee4f354/k4sxz.Istack.Training..Facebook..Ecom.Mastery.event.Las.Vegas.Replay.2019.part02.rar
https://rapidgator.net/file/c87567114c0b7fc046f16fd9bbfc955a/k4sxz.Istack.Training..Facebook..Ecom.Mastery.event.Las.Vegas.Replay.2019.part03.rar
https://rapidgator.net/file/ab149d2ceb911514dedabff763898e61/k4sxz.Istack.Training..Facebook..Ecom.Mastery.event.Las.Vegas.Replay.2019.part04.rar
https://rapidgator.net/file/831b4931a649c31558ff54cd54500b0d/k4sxz.Istack.Training..Facebook..Ecom.Mastery.event.Las.Vegas.Replay.2019.part05.rar
https://rapidgator.net/file/c2abc33736827eba04cb95ec3e88ebd2/k4sxz.Istack.Training..Facebook..Ecom.Mastery.event.Las.Vegas.Replay.2019.part06.rar
https://rapidgator.net/file/b41c3cf1c25169a80578b27c240a0493/k4sxz.Istack.Training..Facebook..Ecom.Mastery.event.Las.Vegas.Replay.2019.part07.rar
https://rapidgator.net/file/11f6d8b438cb944287f8f79481989661/k4sxz.Istack.Training..Facebook..Ecom.Mastery.event.Las.Vegas.Replay.2019.part08.rar
https://rapidgator.net/file/391a2210f5dd96e8420abd5652713229/k4sxz.Istack.Training..Facebook..Ecom.Mastery.event.Las.Vegas.Replay.2019.part09.rar
https://rapidgator.net/file/060074b138296ba3d29d5757d24d0681/k4sxz.Istack.Training..Facebook..Ecom.Mastery.event.Las.Vegas.Replay.2019.part10.rar