Jazz Manouche In the style of Stochelo Rosenberg

Jazz Manouche – In the style of Stochelo Rosenberg
WEBRip | English | AVI | 720 x 480 | AVC ~2502 kbps | 29.970 fps
MP3 320 Kbps 48.0 KHz | 2 channels | 03:04:35 | 3.65 GB
Genre: eLearning Video / Guitar lesson

Producer Denis Chang’s concept for the "In the Style of…" series is well-suited for illustrating the basics, as well as, the finer points of the "Stochelo Rosenberg" style. The DVD is divided into two parts. In "The Songs", Stochelo is accompanied by Denis as they demonstrate Stochelo’s style at slow, medium and fast tempos on 35 songs, in the Django style. The songs were selected to demonstrate all of the common chord changes in the contemporary jazz manouche repertoire.
The second section is divided into two parts. "Rhythm Overview" is where Stochelo gives valuable insight into his approach to rhythm playing. Stochelo demonstrates good and bad rhythm as well as his approach to bossa, rumba, waltz, rumba-waltz and bolero rhythms. Proper chord shapes and sequences are shown for four songs. Finally in "Lead Guitar", Stochelo deals with vibrato and right-hand technique before explaining his personal technique. He then clearly demonstrates 29 phrases and 2 endings. All phrases are initially played at tempo and are then clearly demonstrated for the viewer.

This DVD follows the traditional gypsy method of instruction. No tab is provided and students are encouraged to learn by watching and repeating. Alternate close-up angles are provided for more in-depth analysis. Careful placement of chapter markers allows the viewer to repeat phrases precisely. The total running time for the DVD is over 3 hours.

General
Complete name : 04_Stochelo Phrase_16-20.avi
Format : AVI
Format/Info : Audio Video Interleave
File size : 235 MiB
Duration : 11 min 36 s
Overall bit rate : 2 836 kb/s
Writing application : Lavf51.12.1

Video
ID : 0
Format : MPEG-4 Visual
Format profile :
Format settings, BVOP : No
Format settings, QPel : No
Format settings, GMC : No warppoints
Format settings, Matrix : Default (H.263)
Codec ID : divx
Codec ID/Info : Mainly used by Google
Codec ID/Hint : DivX
Duration : 11 min 36 s
Bit rate : 2 502 kb/s
Width : 720 pixels
Height : 480 pixels
Display aspect ratio : 3:2
Frame rate : 29.970 (30000/1001) FPS
Standard : NTSC
Color space : YUV
Chroma subsampling : 4:2:0
Bit depth : 8 bits
Scan type : Progressive
Compression mode : Lossy
Bits/(Pixel*Frame) : 0.242
Stream size : 208 MiB (88%)
Writing library : Lavc51.40.4

Audio
ID : 1
Format : MPEG Audio
Format version : Version 1
Format profile : Layer 3
Format settings : Joint stereo / MS Stereo
Codec ID : 55
Codec ID/Hint : MP3
Duration : 11 min 36 s
Bit rate mode : Constant
Bit rate : 320 kb/s
Channel(s) : 2 channels
Sampling rate : 48.0 kHz
Compression mode : Lossy
Stream size : 26.6 MiB (11%)
Alignment : Aligned on interleaves
Interleave, duration : 24 ms (0.72 video frame)
Writing library : LAME3.97

Screenshots

DOWNLOAD
(Buy premium account for maximum speed and resuming ability)

http://nitroflare.com/view/FC2745037D45CF7/9zf0c.Jazz.Manouche..In.the.style.of.Stochelo.Rosenberg.part1.rar
http://nitroflare.com/view/49742134ED3C6D8/9zf0c.Jazz.Manouche..In.the.style.of.Stochelo.Rosenberg.part2.rar
http://nitroflare.com/view/9D12A6F185CFE22/9zf0c.Jazz.Manouche..In.the.style.of.Stochelo.Rosenberg.part3.rar
http://nitroflare.com/view/7117E15B8BAA593/9zf0c.Jazz.Manouche..In.the.style.of.Stochelo.Rosenberg.part4.rar
http://nitroflare.com/view/134083E7EC19CA5/9zf0c.Jazz.Manouche..In.the.style.of.Stochelo.Rosenberg.part5.rar
http://nitroflare.com/view/6164C523A29A27A/9zf0c.Jazz.Manouche..In.the.style.of.Stochelo.Rosenberg.part6.rar
http://nitroflare.com/view/948AE900F60C862/9zf0c.Jazz.Manouche..In.the.style.of.Stochelo.Rosenberg.part7.rar
http://nitroflare.com/view/EF48C088153B057/9zf0c.Jazz.Manouche..In.the.style.of.Stochelo.Rosenberg.part8.rar
https://rapidgator.net/file/62ab69378fa532b659ce78ed7000d513/9zf0c.Jazz.Manouche..In.the.style.of.Stochelo.Rosenberg.part1.rar
https://rapidgator.net/file/4879b705f2f0f733e496cd788dcf1c64/9zf0c.Jazz.Manouche..In.the.style.of.Stochelo.Rosenberg.part2.rar
https://rapidgator.net/file/d67366562cb393522fe4f99326e05f53/9zf0c.Jazz.Manouche..In.the.style.of.Stochelo.Rosenberg.part3.rar
https://rapidgator.net/file/ab8e375b3238c6946845be77bee18bc0/9zf0c.Jazz.Manouche..In.the.style.of.Stochelo.Rosenberg.part4.rar
https://rapidgator.net/file/7a4c69e33b31ffe167411a3233f3570a/9zf0c.Jazz.Manouche..In.the.style.of.Stochelo.Rosenberg.part5.rar
https://rapidgator.net/file/8b38d8fbdce10b10602dd23c9d9f91c3/9zf0c.Jazz.Manouche..In.the.style.of.Stochelo.Rosenberg.part6.rar
https://rapidgator.net/file/6946d6fb20f8dfbe4327131d2ddf0697/9zf0c.Jazz.Manouche..In.the.style.of.Stochelo.Rosenberg.part7.rar
https://rapidgator.net/file/0438d59931da62522918f6c21b295f7f/9zf0c.Jazz.Manouche..In.the.style.of.Stochelo.Rosenberg.part8.rar