Mark Stone Order Flow Analysis

Mark Stone – Order Flow Analysis
WEBRip | English | AVI | 1280 x 720 | AVC ~1608 Kbps | 29.970 fps
MP3 | 160 Kbps | 48.0 KHz | 2 channels | ~7 hours | 5.14 GB
Genre: eLearning Video / Trading, Stock

MOVE BEYOND THE TECHNICAL ANALYSIS OF YESTERDAY Drag and Drop tools on specific ranges and swings to eliminate fixed lookback technical analysis pitfalls. Volume Cluster Analysis data visualization breaks down periods into critical data points for precision entry, stop and take profit prices. Dynamic logic of profiles expose range and breakout opportunities for improved market context.
New to order flow analysis? Learn about order flow trading origins, the pioneering software from OFA, and how to understand bid-ask volume using our groundbreaking technical analysis.

We are here to make sure that you are able to excel with this revolutionary view of the market. Our master traders end most days in the green because they understand how to leverage the information revealed in the OFA tools.

The Order Flow Analytics team offers training events and educational courses to get you on your feet and lead you toward trading success using order flow analysis.

We offer an insightful, interactive futures training course with master trader Mark Stone. The Beat the Market with Mark Stone recorded 20+ hour training course will help chart a path for success using OFA to make trade decisions. Mark has helped hundreds of novice and experienced traders to improve their trade decisions with OFA.
During the course, you’ll learn:

How OFA sits within your charting program
Detailed explanations of each of the seven OFA indicators
Trade setup
Volume profiling – the right way
7 elements of a volume profile
How to manage risk using OFA
Pattern recognition
Trading the ES with OFA
Putting it all together with a trading plan

More Info:
https://anonym.to/?https://orderflowanalytics.com/1
Value: $999

General
Complete name : 1-2.avi
Format : AVI
Format/Info : Audio Video Interleave
File size : 329 MiB
Duration : 25 min 46 s
Overall bit rate : 1 782 kb/s
Writing application : Lavf54.59.106

Video
ID : 0
Format : MPEG-4 Visual
Format profile : [email protected]
Format settings, BVOP : No
Format settings, QPel : No
Format settings, GMC : No warppoints
Format settings, Matrix : Default (H.263)
Codec ID : FMP4
Duration : 25 min 46 s
Bit rate : 1 608 kb/s
Width : 1 280 pixels
Height : 720 pixels
Display aspect ratio : 16:9
Frame rate : 29.970 (30000/1001) FPS
Color space : YUV
Chroma subsampling : 4:2:0
Bit depth : 8 bits
Scan type : Progressive
Compression mode : Lossy
Bits/(Pixel*Frame) : 0.058
Stream size : 296 MiB (90%)
Writing library : Lavc54.86.100

Audio
ID : 1
Format : MPEG Audio
Format version : Version 1
Format profile : Layer 3
Format settings : Joint stereo / MS Stereo
Codec ID : 55
Codec ID/Hint : MP3
Duration : 25 min 46 s
Bit rate mode : Constant
Bit rate : 160 kb/s
Channel(s) : 2 channels
Sampling rate : 48.0 kHz
Compression mode : Lossy
Stream size : 29.5 MiB (9%)
Alignment : Aligned on interleaves
Interleave, duration : 24 ms (0.72 video frame)
Interleave, preload duration : 26 ms
Writing library : LAME3.99.3

Screenshots

DOWNLOAD
(Buy premium account for maximum speed and resuming ability)

https://rapidgator.net/file/c8a689ef71a99e24e4c6dfd5fbe49224/yre1m.Mark.Stone..Order.Flow.Analysis.part1.rar
https://rapidgator.net/file/87262456ecdde1297281db6bcbfd1071/yre1m.Mark.Stone..Order.Flow.Analysis.part2.rar
https://rapidgator.net/file/ac38363d305b984ae91dfb5f02da04c7/yre1m.Mark.Stone..Order.Flow.Analysis.part3.rar
https://rapidgator.net/file/60468a4bdf4d11238c27199f94abc3af/yre1m.Mark.Stone..Order.Flow.Analysis.part4.rar
https://rapidgator.net/file/2c84c617aa17107e6e4519189eb67f23/yre1m.Mark.Stone..Order.Flow.Analysis.part5.rar
https://rapidgator.net/file/56bf6dcbec6055f1cb55d2bc461d2f58/yre1m.Mark.Stone..Order.Flow.Analysis.part6.rar
https://rapidgator.net/file/6e9033b39fa11c0955a0bd6f5af983ae/yre1m.Mark.Stone..Order.Flow.Analysis.part7.rar
https://rapidgator.net/file/001072c16ed58da737121d31dac4b5f2/yre1m.Mark.Stone..Order.Flow.Analysis.part8.rar