Russell Brunson – Traffic Secrets


Russell Brunson – Traffic Secrets
WEBRip | English | MP4 | 1920 x 1080 | AVC ~1515 Kbps | 30 fps
AAC | 108 Kbps | 44.1 KHz | 2 channels | ~20 hours | 12.45 GB
Genre: eLearning Video / Business, Sales, Marketing

Over the past 10 years, Russell has built a following of over a million entrepreneurs, sold hundreds of thousands of copies of his books, popularized the concept of sales funnels, and co-founded a software company called ClickFunnels that helps tens of thousands of entrepreneurs quickly get their message out to the marketplace.

Includes:

Module 1: The Foundation
Module 2: Market Discovery
Module 3: Copywriting Secrets
Module 4: Keyword Science
Module 5: Email Marketing Tactics
Module 6: Borrowing Traffic
Module 7: Shopping Engines and Amazon
Module 8: Traffic Formulas
Module 9: Buying Media and Sponsorships
Module 10: Google Adwords
Module 11: Podcasts and Broadcasts
Module 12: Mobile App Marketing
Module 13: Software and Widgets
Module 14: Facebook Ads
Module 15: Traffic Retargeting
Module 16: International Opportunities
Module 17: Social Media Strategies
Module 18: Traffic Recycling
Module 19: Google SEO
Module 20: Building a Content Factory
Module 21: Content Curation Methods
Module 22: Youtube Marketing
Module 23: Expansion and Scalability
Module 24: The Masterplan

General
Complete name : 01-Video Ranking Factors.mp4
Format : MPEG-4
Format profile : Base Media
Codec ID : isom (isom/iso2/avc1/mp41)
File size : 119 MiB
Duration : 10 min 10 s
Overall bit rate mode : Variable
Overall bit rate : 1 628 kb/s
Season : 0
Movie name : 01-Video Ranking Factors
Part : 0

AppleStoreCatalogID : 0
Xtra : WM/Director

Video
ID : 1
Format : AVC
Format/Info : Advanced Video Codec
Format profile :
Format settings : 1 Ref Frames
Format settings, CABAC : No
Format settings, RefFrames : 1 frame
Format settings, GOP : M=1, N=12
Codec ID : avc1
Codec ID/Info : Advanced Video Coding
Duration : 10 min 10 s
Bit rate : 1 515 kb/s
Width : 1 920 pixels
Height : 1 080 pixels
Display aspect ratio : 16:9
Frame rate mode : Constant
Frame rate : 30.000 FPS
Color space : YUV
Chroma subsampling : 4:2:0
Bit depth : 8 bits
Scan type : Progressive
Bits/(Pixel*Frame) : 0.024
Stream size : 110 MiB (93%)
Encoded date : UTC 2018-11-26 04:07:25
Tagged date : UTC 2018-11-26 04:07:25
Menus : 3

Audio
ID : 2
Format : AAC
Format/Info : Advanced Audio Codec
Format profile : LC
Codec ID : mp4a-40-2
Duration : 10 min 10 s
Bit rate mode : Variable
Bit rate : 108 kb/s
Maximum bit rate : 134 kb/s
Channel(s) : 2 channels
Channel positions : Front: L R
Sampling rate : 44.1 kHz
Frame rate : 43.066 FPS (1024 SPF)
Compression mode : Lossy
Stream size : 7.89 MiB (7%)
Encoded date : UTC 2018-11-26 04:07:25
Tagged date : UTC 2018-11-26 04:07:25

Menu
ID : 3
Codec ID : text
Duration : 10 min 10 s
Encoded date : UTC 2018-12-11 08:16:17
Tagged date : UTC 2018-12-11 08:16:17
Menu For : 1
00:00:00.000 : Chapter 1

DOWNLOAD
(Buy premium account for maximum speed and resuming ability)

http://nitroflare.com/view/A5523AF81AF7336/5zphv.Russell.Brunson..Traffic.Secrets.part01.rar
http://nitroflare.com/view/D7A88B8865643D4/5zphv.Russell.Brunson..Traffic.Secrets.part02.rar
http://nitroflare.com/view/DCA9C712DD1E8D8/5zphv.Russell.Brunson..Traffic.Secrets.part03.rar
http://nitroflare.com/view/B5903356E9602F4/5zphv.Russell.Brunson..Traffic.Secrets.part04.rar
http://nitroflare.com/view/121121018007670/5zphv.Russell.Brunson..Traffic.Secrets.part05.rar
http://nitroflare.com/view/5841CCB64A92DBB/5zphv.Russell.Brunson..Traffic.Secrets.part06.rar
http://nitroflare.com/view/A6B497435CFD2AD/5zphv.Russell.Brunson..Traffic.Secrets.part07.rar
http://nitroflare.com/view/E7421DE65CD1871/5zphv.Russell.Brunson..Traffic.Secrets.part08.rar
http://nitroflare.com/view/6E32CAB128682AF/5zphv.Russell.Brunson..Traffic.Secrets.part09.rar

https://rapidgator.net/file/f4e4b7e3d2090962845e1d81e5517faf/5zphv.Russell.Brunson..Traffic.Secrets.part01.rar
https://rapidgator.net/file/7a3c41ccb511b6c094de6884f9b1e020/5zphv.Russell.Brunson..Traffic.Secrets.part02.rar
https://rapidgator.net/file/43bb8fdbc49ecb0ddc0123e120f12835/5zphv.Russell.Brunson..Traffic.Secrets.part03.rar
https://rapidgator.net/file/9a3b546eab3c08018ce133c4caa93a2e/5zphv.Russell.Brunson..Traffic.Secrets.part04.rar
https://rapidgator.net/file/2531f1fe9fe5dea8057af7d5805239ad/5zphv.Russell.Brunson..Traffic.Secrets.part05.rar
https://rapidgator.net/file/8cc134e8a47d54333212c679d3d36bb2/5zphv.Russell.Brunson..Traffic.Secrets.part06.rar
https://rapidgator.net/file/db0384c54dbc79f51fae010dc71fea85/5zphv.Russell.Brunson..Traffic.Secrets.part07.rar
https://rapidgator.net/file/49f5985a586501454b1df399499b71b4/5zphv.Russell.Brunson..Traffic.Secrets.part08.rar
https://rapidgator.net/file/adfa7fd29604e9d74e8350d1436d49a2/5zphv.Russell.Brunson..Traffic.Secrets.part09.rar

http://turbobit.net/ssrn8x8s5j38/5zphv.Russell.Brunson..Traffic.Secrets.part01.rar.html
http://turbobit.net/fdikoiikl020/5zphv.Russell.Brunson..Traffic.Secrets.part02.rar.html
http://turbobit.net/lzwcpc0z2uvt/5zphv.Russell.Brunson..Traffic.Secrets.part03.rar.html
http://turbobit.net/db0zilrn6za0/5zphv.Russell.Brunson..Traffic.Secrets.part04.rar.html
http://turbobit.net/9oiggbty6wv7/5zphv.Russell.Brunson..Traffic.Secrets.part05.rar.html
http://turbobit.net/lpmhcc1z7s56/5zphv.Russell.Brunson..Traffic.Secrets.part06.rar.html
http://turbobit.net/8jsu375klp3f/5zphv.Russell.Brunson..Traffic.Secrets.part07.rar.html
http://turbobit.net/4comhl8f2ym7/5zphv.Russell.Brunson..Traffic.Secrets.part08.rar.html
http://turbobit.net/nhileanpv1cz/5zphv.Russell.Brunson..Traffic.Secrets.part09.rar.html