The Experts Guide to Graver Sharpening

The Experts Guide to Graver Sharpening
DVD5 | English | VIDEO_TS | 720 x 480 | MPEG2 ~5994 Kbps | 29.970 fps
AC-3 | 192 Kbps | 48.0 KHz | 2 channels | 01:07:38 | 2.96 GB
Genre: eLearning Video
The film shows how to make jewelry graver, sharpen them correctly, are methods of engraving. Sam Alfano takes the mystery and frustration out of graver sharpening and teaches you how to quickly and accurately prepare and sharpen gravers like the pros. Utilizing the GRS Sharpening System and high resolution close-up video, Alfano’s clear, step-by-step instructions make it easy to prepare gravers like the ones he uses to produce world class hand engraving.

Dozens of timesaving and innovative hints, tips, demonstrations, and tricks of the trade make this information-packed video a must for beginners and professional engravers alike.

General
Complete name : VTS_01_1.VOB
Format : MPEG-PS
File size : 1 000 MiB
Duration : 22 min 9 s
Overall bit rate mode : Variable
Overall bit rate : 6 311 kb/s

Video
ID : 224 (0xE0)
Format : MPEG Video
Format version : Version 2
Format profile : [email protected]
Format settings : BVOP
Format settings, BVOP : Yes
Format settings, Matrix : Default
Format settings, GOP : M=3, N=15
Format settings, picture structure : Frame
Duration : 22 min 9 s
Bit rate mode : Variable
Bit rate : 5 994 kb/s
Maximum bit rate : 8 000 kb/s
Width : 720 pixels
Height : 480 pixels
Display aspect ratio : 4:3
Frame rate : 29.970 (30000/1001) FPS
Standard : NTSC
Color space : YUV
Chroma subsampling : 4:2:0
Bit depth : 8 bits
Scan type : Interlaced
Scan order : Bottom Field First
Compression mode : Lossy
Bits/(Pixel*Frame) : 0.579
Time code of first frame : 00:00:00:00
Time code source : Group of pictures header
GOP, Open/Closed : Open
GOP, Open/Closed of first frame : Closed
Stream size : 950 MiB (95%)

Audio
ID : 189 (0xBD)-128 (0x80)
Format : AC-3
Format/Info : Audio Coding 3
Muxing mode : DVD-Video
Duration : 22 min 8 s
Bit rate mode : Constant
Bit rate : 192 kb/s
Channel(s) : 2 channels
Channel positions : Front: L R
Sampling rate : 48.0 kHz
Frame rate : 31.250 FPS (1536 SPF)
Bit depth : 16 bits
Compression mode : Lossy
Stream size : 30.4 MiB (3%)
Service kind : Complete Main

Menu

Screenshots

DOWNLOAD
(Buy premium account for maximum speed and resuming ability)

http://nitroflare.com/view/C4A9F180FA9ADD2/9uu7r.The.Experts.Guide.to.Graver.Sharpening.part01.rar
http://nitroflare.com/view/94D9A4BA2541F5A/9uu7r.The.Experts.Guide.to.Graver.Sharpening.part02.rar
http://nitroflare.com/view/758A48C5E8E1F00/9uu7r.The.Experts.Guide.to.Graver.Sharpening.part03.rar
http://nitroflare.com/view/637C80C39336EAA/9uu7r.The.Experts.Guide.to.Graver.Sharpening.part04.rar
http://nitroflare.com/view/A77FA03EE919E6C/9uu7r.The.Experts.Guide.to.Graver.Sharpening.part05.rar
http://nitroflare.com/view/45742A5F44B2086/9uu7r.The.Experts.Guide.to.Graver.Sharpening.part06.rar
http://nitroflare.com/view/E21CE2AF8D86CCE/9uu7r.The.Experts.Guide.to.Graver.Sharpening.part07.rar
http://nitroflare.com/view/EC4FC4838030562/9uu7r.The.Experts.Guide.to.Graver.Sharpening.part08.rar
http://nitroflare.com/view/8BD197683D33A7F/9uu7r.The.Experts.Guide.to.Graver.Sharpening.part09.rar
https://rapidgator.net/file/691f697e52c04473cebf0a6cc22b3a6a/9uu7r.The.Experts.Guide.to.Graver.Sharpening.part01.rar
https://rapidgator.net/file/49539b393dc9f03ec3455dec947da91e/9uu7r.The.Experts.Guide.to.Graver.Sharpening.part02.rar
https://rapidgator.net/file/5448ba603f5eb91e59db128105280c5c/9uu7r.The.Experts.Guide.to.Graver.Sharpening.part03.rar
https://rapidgator.net/file/30b346aa8e13ad33beebf7dca93cfdc1/9uu7r.The.Experts.Guide.to.Graver.Sharpening.part04.rar
https://rapidgator.net/file/eddf50ed8eee814935a9e842850ccdfe/9uu7r.The.Experts.Guide.to.Graver.Sharpening.part05.rar
https://rapidgator.net/file/63de10524dbeab28eb0d04094da36b5e/9uu7r.The.Experts.Guide.to.Graver.Sharpening.part06.rar
https://rapidgator.net/file/878006b766fe5ac6ad446c7aa7aa9d7d/9uu7r.The.Experts.Guide.to.Graver.Sharpening.part07.rar
https://rapidgator.net/file/7a7c894e31871e1e221621a9734db7cb/9uu7r.The.Experts.Guide.to.Graver.Sharpening.part08.rar
https://rapidgator.net/file/156adc92d76b6ec376edefdb641c1ba6/9uu7r.The.Experts.Guide.to.Graver.Sharpening.part09.rar