The Versatile Router

The Versatile Router
DVDRip | English | AVI | 720 x 480 | XviD ~3083 Kbps | 25fps
MP3 | 128 Kbps | 44.1 KHz | 2 channels | 00:47:52 | 1.07 GB
Genre: eLearning Video / Woodworking
Woodworkers of every skill level will find something useful in this DVD about the most versatile power tool in the shop. For router expert Pat Warner, the basic idea is to use the router as a "finishing" tool: do all your rough-cutting and hogging with other power tools, then remove the last 1/32 in. of wood with the router, in a clean, surgical stroke.

Warner shows you how to rout clean circles and holes; how to make half-lap joints at the ends of boards, and laps in the middle of boards that cross each other at any angle you choose. There’s a section on the anatomy of a fixed-base router, another on the use of the collar guide for precise template work, and a lesson on getting two different shapes from the same decorative-profile bit.

Warner explains how to get the most out of your router. He shows you how to rout perfect dadoes and grooves, how to make through mortises without tearout, and how to set up and use the table-mounted router. You’ll also learn all about bearing-guided bits, how to rout sliding dovetails, and how to manage full-thickness cuts to make edge treatments like bullnoses.

General
Complete name : The Versatile Router.avi
Format : AVI
Format/Info : Audio Video Interleave
File size : 1.08 GiB
Duration : 47 min 52 s
Overall bit rate : 3 224 kb/s

Video
ID : 1
Format : MPEG-4 Visual
Format profile : [email protected]
Format settings : BVOP2
Format settings, BVOP : 2
Format settings, QPel : No
Format settings, GMC : No warppoints
Format settings, Matrix : Default (H.263)
Muxing mode : Packed bitstream
Codec ID : XVID
Codec ID/Hint : XviD
Duration : 47 min 52 s
Bit rate : 3 083 kb/s
Width : 720 pixels
Height : 480 pixels
Display aspect ratio : 3:2
Frame rate : 25.000 FPS
Color space : YUV
Chroma subsampling : 4:2:0
Bit depth : 8 bits
Scan type : Progressive
Compression mode : Lossy
Bits/(Pixel*Frame) : 0.357
Stream size : 1.03 GiB (96%)
Writing library : XviD 1.1.0 Beta2 (UTC 2005-04-04)

Audio
ID : 0
Format : MPEG Audio
Format version : Version 1
Format profile : Layer 3
Format settings : Dual mono
Codec ID : 55
Codec ID/Hint : MP3
Duration : 47 min 52 s
Bit rate mode : Constant
Bit rate : 128 kb/s
Channel(s) : 2 channels
Sampling rate : 44.1 kHz
Compression mode : Lossy
Delay relative to video : 26 ms
Stream size : 43.8 MiB (4%)
Alignment : Split accross interleaves
Interleave, duration : 40 ms (1.00 video frame)

Screenshots

DOWNLOAD
(Buy premium account for maximum speed and resuming ability)

http://nitroflare.com/view/7AFAA4953A7C486/qh2v9..The.Versatile.Router.part01.rar
http://nitroflare.com/view/C8198C6C6B6CFF4/qh2v9..The.Versatile.Router.part02.rar
http://nitroflare.com/view/2F649FE8C9CC642/qh2v9..The.Versatile.Router.part03.rar
http://nitroflare.com/view/120E4FB1DBDFB68/qh2v9..The.Versatile.Router.part04.rar
http://nitroflare.com/view/2C6C3224AD1F04C/qh2v9..The.Versatile.Router.part05.rar
http://nitroflare.com/view/FEB556094124998/qh2v9..The.Versatile.Router.part06.rar
http://nitroflare.com/view/73808A5D7081C13/qh2v9..The.Versatile.Router.part07.rar
http://nitroflare.com/view/AB21AF19B785DF3/qh2v9..The.Versatile.Router.part08.rar
http://nitroflare.com/view/48A9D384160C600/qh2v9..The.Versatile.Router.part09.rar
http://nitroflare.com/view/F9D6D1006F990AB/qh2v9..The.Versatile.Router.part10.rar
https://rapidgator.net/file/6cc60ae57cf0e7befb086662e4545e81/qh2v9..The.Versatile.Router.part01.rar
https://rapidgator.net/file/3467775e8b8bf5321986d249628cb881/qh2v9..The.Versatile.Router.part02.rar
https://rapidgator.net/file/2cba823cb54176c6ca319bf04daf0dfd/qh2v9..The.Versatile.Router.part03.rar
https://rapidgator.net/file/979a11f086fc6a2fb8ef2349798c0ee5/qh2v9..The.Versatile.Router.part04.rar
https://rapidgator.net/file/9684fa0e86287dd8bb43f017b1cbba85/qh2v9..The.Versatile.Router.part05.rar
https://rapidgator.net/file/b623132d2deac57cbe03d0b4c88d5b26/qh2v9..The.Versatile.Router.part06.rar
https://rapidgator.net/file/4a30c4a8e13cc780d5223086f6f337a2/qh2v9..The.Versatile.Router.part07.rar
https://rapidgator.net/file/8cbd4b2a746bb855b48a781e24df401a/qh2v9..The.Versatile.Router.part08.rar
https://rapidgator.net/file/648bd5868b58b2dfac197069b535422e/qh2v9..The.Versatile.Router.part09.rar
https://rapidgator.net/file/cd792e9c7b495e32282aff4d01aa5c4d/qh2v9..The.Versatile.Router.part10.rar