Tommy Griffith The ClickMinded SEO Course

Tommy Griffith – The ClickMinded SEO Course
WEBRip | English | MP4 | 1280 x 720 | AVC ~1080 Kbps | 30 fps
AAC | 90.9 Kbps | 44.1 KHz | 2 channels | ~25 hours | 6.98 GB
Genre: eLearning Video / Business, Sales, Marketing, SEO
SEO training to 10x your traffic from Google. ClickMinded is where 8,702 startups, agencies, entrepreneurs and students learn SEO. Let me know if this one sounds familiar. You’ve been trying to learn SEO. You’re reading this now, and let me guess, you’ve probably tried to do a few (or all) of the following things:

You’ve read tons of articles about why you NEED to do this one very specific highly-technical SEO tactic in 2019 or you will FAIL
You’ve heard about secret "hacks" that allow people to trick Google and get higher rankings
You’ve tried talking to SEO specialists or following experts on social media – but you ended up more confused than before
You’ve subscribed to an expensive SEO tool and haven’t been able to figure out how to get any value from it and can’t understand half of the things it offers
Most importantly, after everything you’ve tried, you’ve gotten exactly ZERO results for your clients or your own business.

Look, I’ve been there, and I’m the first to admit that there is definitely a struggle, and that struggle is definitely real.

But guess what? It’s not your fault.

It took me a loooong time to figure this stuff out for myself. And my conclusion is this: The problem is not you… it’s the SEO industry.

SEO has a barrier of unnecessary complexity that’s built on complicated technical information that 99% of people honestly don’t need.

It took me YEARS to learn how to get more organic traffic…but I promise you, it doesn’t have to be this way.

What if you could generate a constant flow of relevant traffic to your site?
Maybe you’d get more clients or charge more money for your services
Maybe you’d get more leads and sales for your business
Maybe you’d get a new promotion or land your dream job
That’s what a fundamental knowledge of SEO can do for you.

Emphasis on the word fundamental.

You don’t need all the fluff, hacks, or the complicated technical stuff that the "gurus" make intentionally confusing.

General
Complete name : \01-[New] Keyword Research – ClickMinded.mp4
Format : MPEG-4
Format profile : Base Media
Codec ID : isom (isom/iso2/avc1/mp41)
File size : 232 MiB
Duration : 27 min 31 s
Overall bit rate mode : Variable
Overall bit rate : 1 176 kb/s

Video
ID : 1
Format : AVC
Format/Info : Advanced Video Codec
Format profile : [email protected]
Format settings : 1 Ref Frames
Format settings, CABAC : No
Format settings, RefFrames : 1 frame
Format settings, GOP : M=1, N=12
Codec ID : avc1
Codec ID/Info : Advanced Video Coding
Duration : 27 min 31 s
Bit rate : 1 080 kb/s
Width : 1 280 pixels
Height : 720 pixels
Display aspect ratio : 16:9
Frame rate mode : Constant
Frame rate : 30.000 FPS
Color space : YUV
Chroma subsampling : 4:2:0
Bit depth : 8 bits
Scan type : Progressive
Bits/(Pixel*Frame) : 0.039
Stream size : 213 MiB (92%)
Encoded date : UTC 2019-10-04 15:18:50
Tagged date : UTC 2019-10-04 15:18:50
Menus : 3

Audio
ID : 2
Format : AAC
Format/Info : Advanced Audio Codec
Format profile : LC
Codec ID : mp4a-40-2
Duration : 27 min 31 s
Bit rate mode : Variable
Bit rate : 90.9 kb/s
Channel(s) : 2 channels
Channel positions : Front: L R
Sampling rate : 44.1 kHz
Frame rate : 43.066 FPS (1024 SPF)
Compression mode : Lossy
Stream size : 17.9 MiB (8%)
Language : English
Encoded date : UTC 2019-10-04 15:18:50
Tagged date : UTC 2019-10-04 15:18:50

Menu
ID : 3
Codec ID : text
Duration : 27 min 31 s
Encoded date : UTC 2019-10-08 12:11:51
Tagged date : UTC 2019-10-08 12:11:51
Menu For : 1
00:00:00.000 : Chapter 1

Screenshots

DOWNLOAD
(Buy premium account for maximum speed and resuming ability)

http://nitroflare.com/view/D3A8D727E2E265C/35pm5.Tommy.Griffith..The.ClickMinded.SEO.Course.part01.rar
http://nitroflare.com/view/787B7ED68112F8E/35pm5.Tommy.Griffith..The.ClickMinded.SEO.Course.part02.rar
http://nitroflare.com/view/BB244B037CA999A/35pm5.Tommy.Griffith..The.ClickMinded.SEO.Course.part03.rar
http://nitroflare.com/view/30DC4999B847338/35pm5.Tommy.Griffith..The.ClickMinded.SEO.Course.part04.rar
http://nitroflare.com/view/EAEF98B4DD6DEA0/35pm5.Tommy.Griffith..The.ClickMinded.SEO.Course.part05.rar
http://nitroflare.com/view/EE376EDEF705C72/35pm5.Tommy.Griffith..The.ClickMinded.SEO.Course.part06.rar
http://nitroflare.com/view/20D98FF20ED94D8/35pm5.Tommy.Griffith..The.ClickMinded.SEO.Course.part07.rar
http://nitroflare.com/view/E2461760B95858D/35pm5.Tommy.Griffith..The.ClickMinded.SEO.Course.part08.rar
http://nitroflare.com/view/FAA9CC186D68CB2/35pm5.Tommy.Griffith..The.ClickMinded.SEO.Course.part09.rar
https://rapidgator.net/file/8f9874bef06be87b1d9f279d5d1bb49f/35pm5.Tommy.Griffith..The.ClickMinded.SEO.Course.part01.rar
https://rapidgator.net/file/1f01d3b3046705dfa4e045a243a2fa3f/35pm5.Tommy.Griffith..The.ClickMinded.SEO.Course.part02.rar
https://rapidgator.net/file/993774e15437f5d32da8c50f320eddf5/35pm5.Tommy.Griffith..The.ClickMinded.SEO.Course.part03.rar
https://rapidgator.net/file/0bbdaaa81178cf23794f80d6c34618d9/35pm5.Tommy.Griffith..The.ClickMinded.SEO.Course.part04.rar
https://rapidgator.net/file/6b270ef5a9a835f414f85c348faf6c73/35pm5.Tommy.Griffith..The.ClickMinded.SEO.Course.part05.rar
https://rapidgator.net/file/2650653aff5060ebdb45ca3c1a5a0cb3/35pm5.Tommy.Griffith..The.ClickMinded.SEO.Course.part06.rar
https://rapidgator.net/file/05faa8407de74b2f6efaab0c87c96b0f/35pm5.Tommy.Griffith..The.ClickMinded.SEO.Course.part07.rar
https://rapidgator.net/file/d656a55a9b4a309cc5a22f6745ce10be/35pm5.Tommy.Griffith..The.ClickMinded.SEO.Course.part08.rar
https://rapidgator.net/file/2b897eff4ed665bd9bce04966c1406fa/35pm5.Tommy.Griffith..The.ClickMinded.SEO.Course.part09.rar