Top Trader Academy Complete Course (Lectures 1 6) Selling Options for Profits

Top Trader Academy – Complete Course (Lectures 1-6) – Selling Options for Profits
WEBRip | English | MP4 + PDF Guides | 1280 x 720 | AVC ~986 Kbps | 30 fps
AAC | 91.7 Kbps | 44.1 KHz | 2 channels | 03:48:58 | 1.63 GB
Genre: eLearning Video / Forex, Trading, Stock
Learn to Profit from the Markets regardless of direction! Learn how to benefit from the market regardless of market direction!! Learn how to do Straddles, Strangles, Iron Condors and much more!! If you have no experience in the Stock Market this course is for you. It will take you from beginning to end in a comprehensive 5 Step Video Course (over 3 hours of detailed video instruction with PDF manual)

Get access to our WhatsApp trading room bootcamp free for 30 days to get live trades from the instructor, a complete candidate list, adjustments and live help to ask any questions on existing or new trades

Some of the Major Topics

– Introduction to the Stock Market and Technical Analysis

– Stock Options (Delta, Gamma, Theta, Vega)

– How to practice without risking any of your Money (Paper Money)

– Why selling Options is much better than buying them

– What is a Vertical/Iron Condor/Strangle

– How to identify the best candidates for Iron Condors/Strangles

– How to exit/adjust a trade when its going against you

– When to exit a trade when it’s going in your favor

– How to create your portfolio (Mathematical diversification vs. by Industry)

– Our copyrighted Trade Repair Roadmap to salvage almost any trade using Verticals, Strangles, Straddles, Covered Puts and Covered Calls

– How to size your trades appropriately to avoid substantial losses from regular market movements

– Why when the market is dropping it’s the best time to make money! – Volatility and how to benefit from it

– What is notional value and why is it important

– How to select to enter with an Iron Condor, Iron Butterfly, Strangle or Straddle (and how to construct each one)

– How to defend each of the above if the market goes against you. Turn them into Verticals, Inverted Strangles or Straddles

– How to use time to your advantage to save almost every trade

and much more…

Plus get access to our WhatsApp trading room bootcamp free for 30 days to get live trades from the instructor, a complete candidate list, adjustments and live help to ask any questions on existing or new trades

General
Complete name : 4. Types of Iron Condors and Portfolio Management.mp4
Format : MPEG-4
Format profile : Base Media
Codec ID : isom (isom/iso2/avc1/mp41)
File size : 362 MiB
Duration : 46 min 41 s
Overall bit rate mode : Variable
Overall bit rate : 1 083 kb/s
Encoded date : UTC 2019-10-08 15:25:54
Tagged date : UTC 2019-10-08 15:25:54
Writing application : Lavf51.12.1

Video
ID : 1
Format : AVC
Format/Info : Advanced Video Codec
Format profile : [email protected]
Format settings : CABAC / 1 Ref Frames
Format settings, CABAC : Yes
Format settings, RefFrames : 1 frame
Format settings, GOP : M=1, N=12
Codec ID : avc1
Codec ID/Info : Advanced Video Coding
Duration : 46 min 41 s
Bit rate mode : Variable
Bit rate : 986 kb/s
Width : 1 280 pixels
Height : 720 pixels
Display aspect ratio : 16:9
Frame rate mode : Constant
Frame rate : 30.000 FPS
Color space : RGB
Chroma subsampling : 4:2:0
Bit depth : 8 bits
Scan type : Progressive
Bits/(Pixel*Frame) : 0.036
Stream size : 329 MiB (91%)
Encoded date : UTC 2019-10-08 15:25:54
Tagged date : UTC 2019-10-08 15:25:54
Color range : Limited
Matrix coefficients : Identity

Audio
ID : 2
Format : AAC
Format/Info : Advanced Audio Codec
Format profile : LC
Codec ID : mp4a-40-2
Duration : 46 min 41 s
Bit rate mode : Variable
Bit rate : 91.7 kb/s
Channel(s) : 2 channels
Channel positions : Front: L R
Sampling rate : 44.1 kHz
Frame rate : 43.066 FPS (1024 SPF)
Compression mode : Lossy
Stream size : 30.6 MiB (8%)
Encoded date : UTC 2019-10-08 15:25:54
Tagged date : UTC 2019-10-08 15:25:54

Screenshots

DOWNLOAD
(Buy premium account for maximum speed and resuming ability)

http://nitroflare.com/view/A1F3473F41163EF/8yude.Top.Trader.Academy..Complete.Course.Lectures.16..Selling.Options.for.Profits.part01.rar
http://nitroflare.com/view/EE9B5238956A4CC/8yude.Top.Trader.Academy..Complete.Course.Lectures.16..Selling.Options.for.Profits.part02.rar
http://nitroflare.com/view/CEF21248DAB34FF/8yude.Top.Trader.Academy..Complete.Course.Lectures.16..Selling.Options.for.Profits.part03.rar
http://nitroflare.com/view/1F62574B420BA2D/8yude.Top.Trader.Academy..Complete.Course.Lectures.16..Selling.Options.for.Profits.part04.rar
http://nitroflare.com/view/0B6523C4385329F/8yude.Top.Trader.Academy..Complete.Course.Lectures.16..Selling.Options.for.Profits.part05.rar
http://nitroflare.com/view/E206BBD56E608E2/8yude.Top.Trader.Academy..Complete.Course.Lectures.16..Selling.Options.for.Profits.part06.rar
http://nitroflare.com/view/47AAE9D1CF0BE2A/8yude.Top.Trader.Academy..Complete.Course.Lectures.16..Selling.Options.for.Profits.part07.rar
http://nitroflare.com/view/927740F7F833728/8yude.Top.Trader.Academy..Complete.Course.Lectures.16..Selling.Options.for.Profits.part08.rar
http://nitroflare.com/view/7403DDD490FB0DE/8yude.Top.Trader.Academy..Complete.Course.Lectures.16..Selling.Options.for.Profits.part09.rar
https://rapidgator.net/file/1469157b7da0900fbe253ad51f87797c/8yude.Top.Trader.Academy..Complete.Course.Lectures.16..Selling.Options.for.Profits.part01.rar
https://rapidgator.net/file/a57a49959564ced97bddd761c1fba9a8/8yude.Top.Trader.Academy..Complete.Course.Lectures.16..Selling.Options.for.Profits.part02.rar
https://rapidgator.net/file/ba024460ff6f310b1a342bf7c70978a3/8yude.Top.Trader.Academy..Complete.Course.Lectures.16..Selling.Options.for.Profits.part03.rar
https://rapidgator.net/file/965c851d08de7d6897b91be69c032e29/8yude.Top.Trader.Academy..Complete.Course.Lectures.16..Selling.Options.for.Profits.part04.rar
https://rapidgator.net/file/8f87a407ab8ce788d5cd90572db03afb/8yude.Top.Trader.Academy..Complete.Course.Lectures.16..Selling.Options.for.Profits.part05.rar
https://rapidgator.net/file/6fe15d89f588ba25c1dd2fd1417360b2/8yude.Top.Trader.Academy..Complete.Course.Lectures.16..Selling.Options.for.Profits.part06.rar
https://rapidgator.net/file/8995920f5a4bf434cd43118627f3ae0a/8yude.Top.Trader.Academy..Complete.Course.Lectures.16..Selling.Options.for.Profits.part07.rar
https://rapidgator.net/file/ca1ae3597e1f7bc460d6f855f45f93da/8yude.Top.Trader.Academy..Complete.Course.Lectures.16..Selling.Options.for.Profits.part08.rar
https://rapidgator.net/file/ba4f4392c39c3987b6abad181ba7083e/8yude.Top.Trader.Academy..Complete.Course.Lectures.16..Selling.Options.for.Profits.part09.rar