TTC Video St. Augustine’s Confessions [Reduced]

TTC Video – St. Augustine’s Confessions
WEBRip | M4V/AVC, ~579 kb/s | 480×352 | 12:09:01 | English: AAC, 579 kb/s (2 ch) | + PDF Guide | 3.52 GB
Genre: eLearning Video / Literature, History, Religion
In St. Augustine’s Confessions , Professors William R. Cook and Ronald B. Herzman lead a chapter-by-chapter-or, in Augustine’s terms, "book-by-book"-analysis of one of history’s most significant literary works. Written in the 4th century C.E., the Confessions is an opportunity to explore, in one book, questions that have been addressed in many books-by the likes of Plato, Cicero, Freud, and Einstein-for more than a millennium.

How should parents raise children, and how should schools educate children? Why are we attracted to things that are forbidden, and how do we develop addictions? What is time? What is memory and what can it tell us? How can we understand God, or the nature of evil? How should we interpret scripture? What is true friendship? How should we deal with the death of a loved one? Augustine addresses each of these issues, and many more, in a way that few thinkers have been able to equal.

The Confessions has had a staggering influence on Western civilization. It provided the framework through which the Judeo-Christian world accepted the thinking of Plato and other classical pagan philosophers. It served as the blueprint for Dante’s Divine Comedy and inspired Martin Luther.

Lectures:
01. Augustine and the Confessions
02. Augustine and the World of Classical Antiquity
03. The Corpus of Augustine’s Writings
04. Form and Genre
05. Book I-Sin and Confession
06. Book I-Augustine’s Childhood
07. Book II-Augustine Grows Up
08. Book II-Stealing Pears: So What?
09. Book III-The Journey Begins
10. Book IV-The Problem of Friendship
11. Book V-From Carthage to Rome
12. Book VI-A New Look at Christianity
13. Book VII-Neo-Platonism and Truth
14. Book VII-Faith and Reason
15. Book VIII-Converging Conversions
16. Book VIII-"Pick It Up and Read"
17. Book IX-The New Man
18. Book IX-The Death of Monica
19. Book X-Augustine the Bishop
20. Book X-Augustine on Memory
21. Book XI-Augustine on Time
22. Book XII-Augustine on Biblical Interpretation
23. Book XIII-Augustine on Creation
24. The Confessions Through the Ages

General
Complete name : 16. Book VIII – Pick It Up and Read.avi
Format : AVI
Format/Info : Audio Video Interleave
File size : 150 MiB
Duration : 30 min 20 s
Overall bit rate mode : Variable
Overall bit rate : 692 kb/s

Video
ID : 0
Format : MPEG-4 Visual
Format settings : BVOP1
Format settings, BVOP : 1
Format settings, QPel : No
Format settings, GMC : No warppoints
Format settings, Matrix : Default (H.263)
Muxing mode : Packed bitstream
Codec ID : DX50
Codec ID/Hint : DivX 5
Duration : 30 min 20 s
Bit rate : 579 kb/s
Nominal bit rate : 8 000 kb/s
Width : 480 pixels
Height : 352 pixels
Display aspect ratio : 4:3
Frame rate : 29.970 (30000/1001) FPS
Color space : YUV
Chroma subsampling : 4:2:0
Bit depth : 8 bits
Scan type : Progressive
Compression mode : Lossy
Bits/(Pixel*Frame) : 0.114
Stream size : 126 MiB (84%)
Title : Video
Writing library : DivX 5.2.0 (DrDivX 105) (UTC 2004-07-17)

Audio
ID : 1
Format : MPEG Audio
Format version : Version 1
Format profile : Layer 3
Format settings : Joint stereo / MS Stereo
Codec ID : 55
Codec ID/Hint : MP3
Duration : 30 min 20 s
Bit rate mode : Variable
Bit rate : 96.0 kb/s
Channel(s) : 2 channels
Sampling rate : 44.1 kHz
Compression mode : Lossy
Stream size : 21.6 MiB (14%)
Alignment : Aligned on interleaves
Interleave, duration : 26 ms (0.78 video frame)
Interleave, preload duration : 469 ms
Title : Audio

Screenshots

DOWNLOAD
(Buy premium account for maximum speed and resuming ability)

http://nitroflare.com/view/ADBA76B13BD1100/pry4b.TTC.Video..St..Augustines.Confessions.Reduced.part01.rar
http://nitroflare.com/view/04DAFE8BEF132EB/pry4b.TTC.Video..St..Augustines.Confessions.Reduced.part02.rar
http://nitroflare.com/view/4FFF9EA893B33AC/pry4b.TTC.Video..St..Augustines.Confessions.Reduced.part03.rar
http://nitroflare.com/view/252E63EBA72B07A/pry4b.TTC.Video..St..Augustines.Confessions.Reduced.part04.rar
http://nitroflare.com/view/CFDB4327A6863EF/pry4b.TTC.Video..St..Augustines.Confessions.Reduced.part05.rar
http://nitroflare.com/view/87F664F05CF0C69/pry4b.TTC.Video..St..Augustines.Confessions.Reduced.part06.rar
http://nitroflare.com/view/6F02E0D6F595D3E/pry4b.TTC.Video..St..Augustines.Confessions.Reduced.part07.rar
http://nitroflare.com/view/6163D657A3E227F/pry4b.TTC.Video..St..Augustines.Confessions.Reduced.part08.rar
http://nitroflare.com/view/86020D4D0CAB2AF/pry4b.TTC.Video..St..Augustines.Confessions.Reduced.part09.rar
http://nitroflare.com/view/595CFEE7F240B9E/pry4b.TTC.Video..St..Augustines.Confessions.Reduced.part10.rar
https://rapidgator.net/file/83e8aae50d2e1e61f76cc5ad522a6b1d/pry4b.TTC.Video..St..Augustines.Confessions.Reduced.part01.rar
https://rapidgator.net/file/3f1ab35cd18216ba48f1c24cc37d134a/pry4b.TTC.Video..St..Augustines.Confessions.Reduced.part02.rar
https://rapidgator.net/file/fd1b21adfe0ed5665c11ad669b949ea4/pry4b.TTC.Video..St..Augustines.Confessions.Reduced.part03.rar
https://rapidgator.net/file/b1d365b0b667fb63ef1c0ce7e9b24aa7/pry4b.TTC.Video..St..Augustines.Confessions.Reduced.part04.rar
https://rapidgator.net/file/5af40bbb7d27be7da867612a97ffe98e/pry4b.TTC.Video..St..Augustines.Confessions.Reduced.part05.rar
https://rapidgator.net/file/febbc6fb6f56fd91299a67a6257b9cca/pry4b.TTC.Video..St..Augustines.Confessions.Reduced.part06.rar
https://rapidgator.net/file/2149b537fea5e253ec3cbb7e2200548e/pry4b.TTC.Video..St..Augustines.Confessions.Reduced.part07.rar
https://rapidgator.net/file/43d6eea327714856e6e0443afbc6f993/pry4b.TTC.Video..St..Augustines.Confessions.Reduced.part08.rar
https://rapidgator.net/file/e2a8c78e8f0fcddbfc206e3eeaa88b23/pry4b.TTC.Video..St..Augustines.Confessions.Reduced.part09.rar
https://rapidgator.net/file/627ce7528760957aaab1c27e23187c9e/pry4b.TTC.Video..St..Augustines.Confessions.Reduced.part10.rar