TTC Video The Big Questions of Philosophy [Compressed]

TTC Video – The Big Questions of Philosophy
WEBRip | M4V/AVC, ~505 kb/s | 640×360 | 19:14:37 | English: AAC, 161 kb/s (2 ch) | + PDF Guide | 5.63 GB
Genre: eLearning Video / Philosophy, Self Improvement
We have all pondered seemingly unanswerably but significant questions about our existence-the biggest of all being, "Why are we here?" Philosophy has developed over millennia to help us grapple with these essential intangibles. There is no better way to study the big questions in philosophy than to compare how the world’s greatest minds have analyzed these questions, defined the terms, and then reasoned out potential solutions. Once you’ve compared the arguments, the final step is always deciding for yourself whether you find an explanation convincing.

Prof. David Kyle Johnson, Ph.D. – University of Oklahoma
TTC / TGC Course No. 4130

The philosophers who have confronted these mysteries include Plato, St. Anselm, Descartes, Locke, Hume, Kant, Mill, Smith, Marx, Rawls, and Nozick, among many others. And while it is easy to think of philosophy as a catalogue of great names such as these, it is really a collection of big questions and the arguments that try to answer them.

The Big Questions of Philosophy is your chance to engage in this intellectually exciting pursuit as you address issues that have preoccupied great minds for millennia. Your guide is philosopher David Kyle Johnson, an award-winning teacher and nationally recognized scholar, author, speaker, and blogger, who is an Associate Professor of Philosophy at King’s College in Pennsylvania.

Lectures:
01. How Do We Do Philosophy?
02. Why Should We Trust Reason?
03. How Do We Reason Carefully?
04. How Do We Find the Best Explanation?
05. What Is Truth?
06. Is Knowledge Possible?
07. What Is the Best Way to Gain Knowledge?
08. Do We Know What Knowledge Is?
09. When Can We Trust Testimony?
10. Can Mystical Experience Justify Belief?
11. Is Faith Ever Rational?
12. Why Is There Something Rather Than Nothing?
13. What Is God Like?
14. How Could God Allow Moral Evil?
15. Why Would God Cause Natural Evil?
16. Are Freedom and Foreknowledge Compatible?
17. Do Our Souls Make Us Free?
18. What Does It Mean to Be Free?
19. What Preserves Personal Identity?
20. Are Persons Mere Minds?
21. Are Persons Just Bodies?
22. Are You Really You?
23. How Does the Brain Produce the Mind?
24. What Do Minds Do, If Anything?
25. Could Machines Think?
26. Does God Define the Good?
27. Does Happiness Define the Good?
28. Does Reason Define the Good?
29. How Ought We to Live?
30. Why Bother Being Good?
31. Should Government Exist?
32. What Justifies a Government?
33. How Big Should Government Be?
34. What Are the Limits of Liberty?
35. What Makes a Society Fair or Just?
36. What Is the Meaning of Life?

General
Complete name : Tgc 4130 Lect15 Bigquestionsphilosophy.m4v
Format : MPEG-4
Format profile : Base Media / Version 2
Codec ID : mp42 (isom/iso2/avc1/mp41)
File size : 155 MiB
Duration : 32 min 18 s
Overall bit rate mode : Variable
Overall bit rate : 673 kb/s
Movie name : Why Would God Cause Natural Evil?
Performer : David Kyle Johnson
Composer : The Great Courses
Genre : The Big Questions of Philosophy
Recorded date : 2016
Encoded date : UTC 2036-02-06 06:28:16
Tagged date : UTC 2036-02-06 06:28:16
Writing application : HandBrake 0.10.2 2015060900

Video
ID : 1
Format : AVC
Format/Info : Advanced Video Codec
Format profile : [email protected]
Format settings : CABAC / 4 Ref Frames
Format settings, CABAC : Yes
Format settings, RefFrames : 4 frames
Codec ID : avc1
Codec ID/Info : Advanced Video Coding
Duration : 32 min 18 s
Bit rate : 505 kb/s
Width : 640 pixels
Height : 360 pixels
Display aspect ratio : 16:9
Frame rate mode : Variable
Frame rate : 29.970 (29970/1000) FPS
Minimum frame rate : 18.282 FPS
Maximum frame rate : 29.970 FPS
Color space : YUV
Chroma subsampling : 4:2:0
Bit depth : 8 bits
Scan type : Progressive
Bits/(Pixel*Frame) : 0.073
Stream size : 117 MiB (75%)
Writing library : x264 core 142 r2479 dd79a61
Encoding settings : cabac=1 / ref=1 / deblock=1:0:0 / analyse=0x1:0x111 / me=hex / subme=2 / psy=1 / psy_rd=1.00:0.00 / mixed_ref=0 / me_range=16 / chroma_me=1 / trellis=0 / 8x8dct=0 / cqm=0 / deadzone=21,11 / fast_pskip=1 / chroma_qp_offset=0 / threads=3 / lookahead_threads=1 / sliced_threads=0 / nr=0 / decimate=1 / interlaced=0 / bluray_compat=0 / constrained_intra=0 / bframes=3 / b_pyramid=2 / b_adapt=1 / b_bias=0 / direct=1 / weightb=1 / open_gop=0 / weightp=1 / keyint=300 / keyint_min=30 / scenecut=40 / intra_refresh=0 / rc_lookahead=10 / rc=crf / mbtree=1 / crf=20.0 / qcomp=0.60 / qpmin=0 / qpmax=69 / qpstep=4 / vbv_maxrate=20000 / vbv_bufsize=25000 / crf_max=0.0 / nal_hrd=none / filler=0 / ip_ratio=1.40 / aq=1:1.00
Encoded date : UTC 2036-02-06 06:28:16
Tagged date : UTC 2036-02-06 06:28:16
Color range : Limited
Color primaries : BT.601 NTSC
Transfer characteristics : BT.709
Matrix coefficients : BT.601

Audio
ID : 2
Format : AAC
Format/Info : Advanced Audio Codec
Format profile : LC
Codec ID : mp4a-40-2
Duration : 32 min 18 s
Bit rate mode : Variable
Bit rate : 161 kb/s
Channel(s) : 2 channels
Channel positions : Front: L R
Sampling rate : 48.0 kHz
Frame rate : 46.875 FPS (1024 SPF)
Compression mode : Lossy
Stream size : 37.3 MiB (24%)
Title : Stereo / Stereo
Default : Yes
Alternate group : 1
Encoded date : UTC 2036-02-06 06:28:16
Tagged date : UTC 2036-02-06 06:28:16

Screenshots

DOWNLOAD
(Buy premium account for maximum speed and resuming ability)

http://nitroflare.com/view/65E397EF248B8C3/okyia.TTC.Video..The.Big.Questions.of.Philosophy.Compressed.part01.rar
http://nitroflare.com/view/80FB0ECE4E18C80/okyia.TTC.Video..The.Big.Questions.of.Philosophy.Compressed.part02.rar
http://nitroflare.com/view/0E0253BE454BCD2/okyia.TTC.Video..The.Big.Questions.of.Philosophy.Compressed.part03.rar
http://nitroflare.com/view/97D669F809BA4E0/okyia.TTC.Video..The.Big.Questions.of.Philosophy.Compressed.part04.rar
http://nitroflare.com/view/7C6D7CBEB9E7EB3/okyia.TTC.Video..The.Big.Questions.of.Philosophy.Compressed.part05.rar
http://nitroflare.com/view/3B5DFAA7A1CA906/okyia.TTC.Video..The.Big.Questions.of.Philosophy.Compressed.part06.rar
http://nitroflare.com/view/9D86051F3815A60/okyia.TTC.Video..The.Big.Questions.of.Philosophy.Compressed.part07.rar
http://nitroflare.com/view/E4EB7E4A8D1028B/okyia.TTC.Video..The.Big.Questions.of.Philosophy.Compressed.part08.rar
http://nitroflare.com/view/0EFD5B92A70978C/okyia.TTC.Video..The.Big.Questions.of.Philosophy.Compressed.part09.rar
http://nitroflare.com/view/542A5043402F212/okyia.TTC.Video..The.Big.Questions.of.Philosophy.Compressed.part10.rar
https://rapidgator.net/file/ff753e65dd127adbaed5375f80e75621/okyia.TTC.Video..The.Big.Questions.of.Philosophy.Compressed.part01.rar
https://rapidgator.net/file/a7d858e5a9d612075dfd1424adfa2a8b/okyia.TTC.Video..The.Big.Questions.of.Philosophy.Compressed.part02.rar
https://rapidgator.net/file/94c21b8d99efd710b8321d91ffb6b80e/okyia.TTC.Video..The.Big.Questions.of.Philosophy.Compressed.part03.rar
https://rapidgator.net/file/57169933bc4d4123e613bbcfe178a776/okyia.TTC.Video..The.Big.Questions.of.Philosophy.Compressed.part04.rar
https://rapidgator.net/file/b4019b6803ab4523e7db3eea33c99e1e/okyia.TTC.Video..The.Big.Questions.of.Philosophy.Compressed.part05.rar
https://rapidgator.net/file/d54d93016eca1324009c05df67f961e7/okyia.TTC.Video..The.Big.Questions.of.Philosophy.Compressed.part06.rar
https://rapidgator.net/file/0e7fec2c2b2b17254066e0e720faad65/okyia.TTC.Video..The.Big.Questions.of.Philosophy.Compressed.part07.rar
https://rapidgator.net/file/a5554e0eb0ab82893db40b90519c3633/okyia.TTC.Video..The.Big.Questions.of.Philosophy.Compressed.part08.rar
https://rapidgator.net/file/a4ebb3fff7fc98242b99d543ac56546b/okyia.TTC.Video..The.Big.Questions.of.Philosophy.Compressed.part09.rar
https://rapidgator.net/file/ac6bda42a4a0a57572211ba818893a19/okyia.TTC.Video..The.Big.Questions.of.Philosophy.Compressed.part10.rar