Udemy Learn Parallel Programming with C# and .NET (2019)

Udemy – Learn Parallel Programming with C# and .NET (2019)
WEBRip | English | MP4 | 1280 x 720 | AVC ~138 Kbps | 15 fps
AAC | 192 Kbps | 48.0 KHz | 2 channels | 04:53:13 | 666 MB
Genre: Video Tutorial
Discover the core multithreading and parallelization concepts supported by the .NET framework.

What you’ll learn
Create and run independent tasks
Manage synchronized access to data
Effectively use parallel collections
Work with task continuations
Write parallel loops
Leverage the power of Parallel LINQ
Master asynchronous programming (async/await)

This course is about .NET Parallel Programming with C# and covers the core multithreading facilities in the .NET Framework, namely the Task Parallel Library (TPL) and Parallel LINQ (PLINQ).

This course will teach you about:

Task Programming: how to create and run tasks, cancel them, wait on them and handle exceptions that occur in tasks.

Data Sharing and Synchronization, ensuring your access to shared data also happens in a safe and consistent manner.

Concurrent Collections, such as ConcurrentBag, which operate correctly even when accessed from multiple threads.

Task Coordination concepts, including the idea of continuations, as well as uses of synchronization primitives to coordinate tasks.

Parallel Loops which let you easily iterate over a counter or collection while partitioning the data and processing it on separate threads.

Parallel LINQ, the parallel version of .NET’s awesome Language-Integrated Query (LINQ) technology.

Async/Await and .NET’s support for asynchronous programming.

This course is suitable for:

Beginner and experienced .NET/C# developers

Anyone interested in multi-threading, parallelism and asynchronous programming

The course consists of the following materials:

Video lectures showing hands-on programming

C# files that you can download and run

Before taking the course, you should be comfortable with the C# programming language and familiar with multi-threading.

Who this course is for:
Beginner and experienced .NET developers
Computer Science students
Anyone interested in modern approaches to multithreading/parallelism

General
Complete name : 4. Barrier.mp4
Format : MPEG-4
Format profile : Base Media / Version 2
Codec ID : mp42 (isom/iso2/avc1/mp41/mp42)
File size : 22.1 MiB
Duration : 9 min 23 s
Overall bit rate mode : Variable
Overall bit rate : 329 kb/s
Encoded date : UTC 2016-09-05 15:50:38
Tagged date : UTC 2016-09-05 15:50:38
Writing application : Lavf53.32.100

Video
ID : 1
Format : AVC
Format/Info : Advanced Video Codec
Format profile : [email protected]
Format settings : CABAC / 4 Ref Frames
Format settings, CABAC : Yes
Format settings, RefFrames : 4 frames
Codec ID : avc1
Codec ID/Info : Advanced Video Coding
Duration : 9 min 22 s
Bit rate : 138 kb/s
Width : 1 280 pixels
Height : 720 pixels
Display aspect ratio : 16:9
Frame rate mode : Constant
Frame rate : 15.000 FPS
Color space : YUV
Chroma subsampling : 4:2:0
Bit depth : 8 bits
Scan type : Progressive
Bits/(Pixel*Frame) : 0.010
Stream size : 9.23 MiB (42%)
Writing library : x264 core 136
Encoding settings : cabac=1 / ref=4 / deblock=1:0:0 / analyse=0x3:0x113 / me=umh / subme=7 / psy=0 / mixed_ref=1 / me_range=16 / chroma_me=1 / trellis=1 / 8x8dct=1 / cqm=0 / deadzone=21,11 / fast_pskip=0 / chroma_qp_offset=0 / threads=48 / lookahead_threads=5 / sliced_threads=0 / nr=0 / decimate=1 / interlaced=0 / bluray_compat=0 / constrained_intra=0 / bframes=16 / b_pyramid=2 / b_adapt=1 / b_bias=0 / direct=1 / weightb=1 / open_gop=0 / weightp=2 / keyint=300 / keyint_min=25 / scenecut=40 / intra_refresh=0 / rc=2pass / mbtree=0 / bitrate=138 / ratetol=1.0 / qcomp=0.60 / qpmin=10 / qpmax=51 / qpstep=4 / cplxblur=20.0 / qblur=0.5 / ip_ratio=1.40 / pb_ratio=1.30 / aq=1:1.00
Language : English
Encoded date : UTC 2016-09-05 15:50:38
Tagged date : UTC 2016-09-05 16:25:21

Audio
ID : 2
Format : AAC
Format/Info : Advanced Audio Codec
Format profile : LC
Codec ID : mp4a-40-2
Duration : 9 min 23 s
Bit rate mode : Variable
Bit rate : 192 kb/s
Maximum bit rate : 218 kb/s
Channel(s) : 2 channels
Channel positions : Front: L R
Sampling rate : 48.0 kHz
Frame rate : 46.875 FPS (1024 SPF)
Compression mode : Lossy
Stream size : 12.7 MiB (57%)
Default : Yes
Alternate group : 1
Encoded date : UTC 2016-09-05 15:50:38
Tagged date : UTC 2016-09-05 16:25:21

Screenshots

DOWNLOAD
(Buy premium account for maximum speed and resuming ability)

https://rapidgator.net/file/a29e1040371a4da49946ec2be2406d70/kef2u.Udemy..Learn.Parallel.Programming.with.C.and..NET.2019.part1.rar
https://rapidgator.net/file/54a7f26c4df1cf646a2aac4c7dbd71de/kef2u.Udemy..Learn.Parallel.Programming.with.C.and..NET.2019.part2.rar
https://rapidgator.net/file/4c327e67da20aead90b9039b3544341d/kef2u.Udemy..Learn.Parallel.Programming.with.C.and..NET.2019.part3.rar
https://rapidgator.net/file/f5259ae19760f6cbdff326be8170787c/kef2u.Udemy..Learn.Parallel.Programming.with.C.and..NET.2019.part4.rar
https://rapidgator.net/file/5f7f13e6582d08944f39f4aaff3a01b0/kef2u.Udemy..Learn.Parallel.Programming.with.C.and..NET.2019.part5.rar
https://rapidgator.net/file/608cb3a59a03a230e19036a802f1b263/kef2u.Udemy..Learn.Parallel.Programming.with.C.and..NET.2019.part6.rar
https://rapidgator.net/file/0d6623ea835c8bc92a2162f122ef9edc/kef2u.Udemy..Learn.Parallel.Programming.with.C.and..NET.2019.part7.rar