Weighing The Evidence Behind Nutrition Research

IDEA World Nutrition and Behavior Change Summit
Weighing The Evidence Behind Nutrition Research

WEBRip | English | MP4 + PDF Guide | 1920 x 1080 | AVC ~5400 kbps | 29.970 fps
AAC | 160 Kbps | 44.1 KHz | 2 channels | 00:52:07 | 2.07 GB
Genre: eLearning Video / Health, Diet, Sports
It took more than 7,000 studies and the deaths of countless smokers before the Surgeon General’s report on tobacco was released in the 1960s. How many people are suffering needlessly from preventable dietary diseases today? What are the most important nutrition issues we should turn our attention to and why are we so confused about the research surrounding them? Dr. Greger will sort through critical evidence and underscore the trip wires in his hallmark get-to-the-point style.

Learning Objectives

Summarize results of studies by pioneering Lifestyle Medicine physicians, such as Dr. Dean Ornish and Dr. Caldwell Esselstyn.
Explain the role of diet on diabetes and heart disease.
Describe the impact of exercise and nutrition on the human immune system.
Explain the most effective techniques to lower cholesterol.
Identify resources to share the latest clinical evidence-based nutrition.
List common characteristics among the longest lived populations in the world.

General
Complete name : Weighing The Evidence Behind Nutrition Research.mp4
Format : MPEG-4
Format profile : Base Media
Codec ID : isom (isom/iso2/avc1/mp41)
File size : 2.02 GiB
Duration : 52 min 7 s
Overall bit rate : 5 542 kb/s
Movie name : CA17_641B_Final
Album/Performer : Gonzo
Description : This video is about CA17_641B_Final
Writing application : Lavf57.25.100

Video
ID : 2
Format : AVC
Format/Info : Advanced Video Codec
Format profile : [email protected]
Format settings : 3 Ref Frames
Format settings, CABAC : No
Format settings, RefFrames : 3 frames
Codec ID : avc1
Codec ID/Info : Advanced Video Coding
Duration : 52 min 7 s
Bit rate : 5 400 kb/s
Width : 1 920 pixels
Height : 1 080 pixels
Display aspect ratio : 16:9
Frame rate mode : Constant
Frame rate : 29.970 (30000/1001) FPS
Color space : YUV
Chroma subsampling : 4:2:0
Bit depth : 8 bits
Scan type : Progressive
Bits/(Pixel*Frame) : 0.087
Stream size : 1.96 GiB (97%)
Writing library : x264 core 148
Encoding settings : cabac=0 / ref=3 / deblock=1:0:0 / analyse=0x1:0x111 / me=hex / subme=7 / psy=1 / psy_rd=1.00:0.00 / mixed_ref=1 / me_range=16 / chroma_me=1 / trellis=1 / 8x8dct=0 / cqm=0 / deadzone=21,11 / fast_pskip=1 / chroma_qp_offset=-2 / threads=34 / lookahead_threads=5 / sliced_threads=0 / nr=0 / decimate=1 / interlaced=0 / bluray_compat=0 / constrained_intra=0 / bframes=0 / weightp=0 / keyint=90 / keyint_min=9 / scenecut=40 / intra_refresh=0 / rc_lookahead=40 / rc=abr / mbtree=1 / bitrate=5400 / ratetol=1.0 / qcomp=0.60 / qpmin=0 / qpmax=69 / qpstep=4 / ip_ratio=1.40 / aq=1:1.00
Color range : Limited
Color primaries : BT.709
Transfer characteristics : BT.709
Matrix coefficients : BT.709

Audio
ID : 1
Format : AAC
Format/Info : Advanced Audio Codec
Format profile : LC
Codec ID : mp4a-40-2
Duration : 52 min 7 s
Duration_LastFrame : -6 ms
Bit rate mode : Constant
Bit rate : 160 kb/s
Channel(s) : 2 channels
Channel positions : Front: L R
Sampling rate : 44.1 kHz
Frame rate : 43.066 FPS (1024 SPF)
Compression mode : Lossy
Stream size : 59.6 MiB (3%)
Language : English
Default : Yes
Alternate group : 1

Screenshots

DOWNLOAD
(Buy premium account for maximum speed and resuming ability)

http://nitroflare.com/view/E0E5754FB263B24/yomm0.Weighing.The.Evidence.Behind.Nutrition.Research.part01.rar
http://nitroflare.com/view/373276D1D78EB21/yomm0.Weighing.The.Evidence.Behind.Nutrition.Research.part02.rar
http://nitroflare.com/view/B59114DAB625533/yomm0.Weighing.The.Evidence.Behind.Nutrition.Research.part03.rar
http://nitroflare.com/view/D98F72AD6C54035/yomm0.Weighing.The.Evidence.Behind.Nutrition.Research.part04.rar
http://nitroflare.com/view/9D74C5BE7D0B669/yomm0.Weighing.The.Evidence.Behind.Nutrition.Research.part05.rar
http://nitroflare.com/view/BE14BDB5192FBEB/yomm0.Weighing.The.Evidence.Behind.Nutrition.Research.part06.rar
http://nitroflare.com/view/93991CB1DF2A22F/yomm0.Weighing.The.Evidence.Behind.Nutrition.Research.part07.rar
http://nitroflare.com/view/9AA52F436FB0300/yomm0.Weighing.The.Evidence.Behind.Nutrition.Research.part08.rar
http://nitroflare.com/view/8149C4FFD754BA9/yomm0.Weighing.The.Evidence.Behind.Nutrition.Research.part09.rar
https://rapidgator.net/file/e013260b95ca994debfada0ec51c0fed/yomm0.Weighing.The.Evidence.Behind.Nutrition.Research.part01.rar
https://rapidgator.net/file/3ef635d4f4313ca8273966ffe9a1a906/yomm0.Weighing.The.Evidence.Behind.Nutrition.Research.part02.rar
https://rapidgator.net/file/b25616d189471f27e706477a30e7f9ef/yomm0.Weighing.The.Evidence.Behind.Nutrition.Research.part03.rar
https://rapidgator.net/file/46117c723e32fd6e4874d927cd29342b/yomm0.Weighing.The.Evidence.Behind.Nutrition.Research.part04.rar
https://rapidgator.net/file/ad44f28ac8814c794511ac62249360d9/yomm0.Weighing.The.Evidence.Behind.Nutrition.Research.part05.rar
https://rapidgator.net/file/4673308c526027981454a184fefa109d/yomm0.Weighing.The.Evidence.Behind.Nutrition.Research.part06.rar
https://rapidgator.net/file/06a4708503d345fbf0eaaac82a1c92a8/yomm0.Weighing.The.Evidence.Behind.Nutrition.Research.part07.rar
https://rapidgator.net/file/d88b6492206468d00cd111860bc567aa/yomm0.Weighing.The.Evidence.Behind.Nutrition.Research.part08.rar
https://rapidgator.net/file/c5e694863e8d7eddf5db528f230dfb1d/yomm0.Weighing.The.Evidence.Behind.Nutrition.Research.part09.rar